Sign Up   |   Sign In  

Announcements

Want to support us?
Buy a RapidRAR account from our resellers:
Buy or renew a NitroFlare account via THIS LINK

10/10

2019

1

Comments

The Expanse S01 BDRip x264-DEMAND
[RR/NF/UL]
Size: 2.7GB mkv H264 (HIGH) / AAC (LC) 720x404 TV Pack

The Expanse
File Information
[URL=http://imagecurl.com/viewer.php?file=71283639682167290400.png][IMG]http://imagecurl.com/images/71283639682167290400_thumb.png[/IMG][/URL]
[URL=http://imagecurl.com/viewer.php?file=11508187319950670466.png][IMG]http://imagecurl.com/images/11508187319950670466_thumb.png[/IMG][/URL]
[URL=http://imagecurl.com/viewer.php?file=58085998744366589374.png][IMG]http://imagecurl.com/images/58085998744366589374_thumb.png[/IMG][/URL]
[URL=http://imagecurl.com/viewer.php?file=84906944801601903281.png][IMG]http://imagecurl.com/images/84906944801601903281_thumb.png[/IMG][/URL]
[URL=http://imagecurl.com/viewer.php?file=05951674699607138621.png][IMG]http://imagecurl.com/images/05951674699607138621_thumb.png[/IMG][/URL]
[URL=http://imagecurl.com/viewer.php?file=69097870815322044205.png][IMG]http://imagecurl.com/images/69097870815322044205_thumb.png[/IMG][/URL]



[mediainfo]
Video
ID                                       : 1
Format                                   : AVC
Format/Info                              : Advanced Video Codec
Format profile                           : [email protected]
Format settings, CABAC                   : Yes
Format settings, ReFrames                : 5 frames
Codec ID                                 : V_MPEG4/ISO/AVC
Duration                                 : 1h 20mn
Bit rate                                 : 747 Kbps
Width                                    : 720 pixels
Height                                   : 404 pixels
Display aspect ratio                     : 16:9
Frame rate mode                          : Constant
Frame rate                               : 23.976 fps
Color space                              : YUV
Chroma subsampling                       : 4:2:0
Bit depth                                : 8 bits
Scan type                                : Progressive
Bits/(Pixel*Frame)                       : 0.107
Stream size                              : 430 MiB (87%)
Writing library                          : x264 core 148 r2665 a01e339
 Encoding settings                        : cabac=1 / ref=5 / deblock=1:-2:-2 / analyse=0x3:0x113 / me=umh / subme=8 / psy=1 / psy_rd=0.90:0.00 / mixed_ref=1 / me_range=16 / chroma_me=1 / trellis=1 / 8x8dct=1 / cqm=0 / deadz / fast pskip=1 / chroma_qp_offset=-2 / threads=13 / lookahead_threads=2 / sliced_threads=0 / nr=0 / decimate=1 / interlaced=0 / bluray_compat=0 / c / bframes=3 / b_pyramid=2 / b_adapt=2 / b_bias=0 / direct=3 / weightb=1 / open_gop=0 / weightp=2 / keyint=250 / keyint_min=23 / scenecut=40 / intra_refresh=0 / rc_lookahead=50 / rc=crf / mbtree=1 / crf=19.0 / qcomp=0.60 / qpmin=0 / qpmax=69 / qpstep=4 / ip_ratio=1.40 / aq=1:1.00
Language                                 : English
Default                                  : Yes
Forced                                   : No
Color range                              : Limited
Matrix coefficients                      : BT.709

Audio
ID                                       : 2
Format                                   : AAC
Format/Info                              : Advanced Audio Codec
Format profile                           : LC
Codec ID                                 : A_AAC
Duration                                 : 1h 20mn
Bit rate                                 : 112 Kbps
Channel(s)                               : 2 channels
Channel positions                        : Front: L R
Sampling rate                            : 48.0 KHz
Frame rate                               : 46.875 fps (1024 spf)
Compression mode                         : Lossy
Stream size                              : 64.2 MiB (13%)
Language                                 : English
Default                                  : Yes
Forced                                   : No

Menu
00:00:00.000                             : en:00:00:00.000
00:12:21.866                             : en:00:12:21.866
00:40:20.585                             : en:00:40:20.585
01:03:45.488                             : en:01:03:45.488



[/mediainfo]
Download
File Container: MKV
Video/Audio Codec: H264 (HIGH) AAC (LC)
Video Resolution: 720x404

1 Response to "[RR/NF/UL] The Expanse S01 BDRip x264-DEMAND (2.7GB)"
10/10/19
12:25:09
thaaone

Thank You

Please Login to post a comment.
If you don't have any account, please Register.
  • Subscribe my Feeds
  • Facebook

Latest Episodes

Popular Movies and TV Shows

  • Grey's Anatomy
  • The Mandalorian
  • Supernatural
  • Klaus
  • Earthquake Bird
  • Radioflash
  • Titans
  • Angel Has Fallen
  • See
  • For All Mankind
  • Line of Duty
  • Crown Vic
  • Will & Grace
  • American Horror Story
  • The Morning Show
  • Gemini Man
  • Lady and the Tramp
  • The Current War
  • Black-ish
  • Survivor
  • Young Sheldon
  • Joker
  • Noelle
  • Prozac Nation
  • Late Night with Seth Meyers

Recent Comments

  • DarkSkull: Angel Has Fallen 2019 BDRip XviD AC3-EVO 1.3 GBNiTROFLARE http://nitroflare.com/view/4B8E8C937B09247...
  • DarkSkull: Angel Has Fallen 2019 BDRip XviD AC3-EVO 1.3 GBNiTROFLARE http://nitroflare.com/view/4B8E8C937B09247...
  • DarkSkull: Angel Has Fallen 2019 BDRip XviD AC3-EVO 1.3 GBNiTROFLARE http://nitroflare.com/view/4B8E8C937B09247...
  • DarkSkull: Angel Has Fallen 2019 BDRip XviD AC3-EVO 1.3 GBNiTROFLARE http://nitroflare.com/view/4B8E8C937B09247...

Archives