Sign Up   |   Sign In  

Announcements

Want to support us?
Buy a RapidRAR account from our resellers:
Buy or renew a NitroFlare account via THIS LINK

06/20

2017

No

Comments

The Fanboys 2008 720p BluRay H264 AAC-RARBG
[RR/NF/UL/UR/CU]
Size: 1.1GB mp4 H264 (HIGH) (AVC1) / AAC (LC) (MP4A)  HD  1280x720

Fanboys
Click on the image to see full size
[RR/NF/UL/UR/CU] The Fanboys 2008 720p BluRay H264 AAC-RARBG (1.1GB) - Snapshot 1
File Information
[URL=http://imagecurl.com/viewer.php?file=15692751756373391606.png][IMG]http://imagecurl.com/images/15692751756373391606_thumb.png[/IMG][/URL]
[URL=http://imagecurl.com/viewer.php?file=31982041419681039419.png][IMG]http://imagecurl.com/images/31982041419681039419_thumb.png[/IMG][/URL]
[URL=http://imagecurl.com/viewer.php?file=24896923117427189819.png][IMG]http://imagecurl.com/images/24896923117427189819_thumb.png[/IMG][/URL]
[URL=http://imagecurl.com/viewer.php?file=40937846732414581580.png][IMG]http://imagecurl.com/images/40937846732414581580_thumb.png[/IMG][/URL]
[URL=http://imagecurl.com/viewer.php?file=43004343213154970983.png][IMG]http://imagecurl.com/images/43004343213154970983_thumb.png[/IMG][/URL]


[mediainfo]
Video
ID                                       : 1
Format                                   : AVC
Format/Info                              : Advanced Video Codec
Format profile                           : [email protected]
Format settings, CABAC                   : Yes
Format settings, ReFrames                : 4 frames
Codec ID                                 : avc1
Codec ID/Info                            : Advanced Video Coding
Duration                                 : 1 h 29 min
Bit rate                                 : 1 500 kb/s
Width                                    : 1 280 pixels
Height                                   : 720 pixels
Display aspect ratio                     : 16:9
Frame rate mode                          : Constant
Frame rate                               : 23.976 (23976/1000) FPS
Color space                              : YUV
Chroma subsampling                       : 4:2:0
Bit depth                                : 8 bits
Scan type                                : Progressive
Bits/(Pixel*Frame)                       : 0.068
Stream size                              : 962 MiB (87%)
Writing library                          : x264 core 148 r2597M e86f3a1
 Encoding settings                        : cabac=1 / ref=4 / deblock=1:-1:-1 / analyse=0x3:0x113 / me=umh / subme=9 / psy=1 / psy_rd=1.00:0.15 / mixed_ref=1 / me_range=24 / chroma_me=1 / trellis=2 / 8x8dct=1 / cqm=0 / deadz / fast pskip=1 / chroma_qp_offset=-3 / threads=32 / lookahead_threads=4 / sliced_threads=0 / nr=0 / decimate=1 / interlaced=0 / bluray_compat=0 / c / bframes=3 / b_pyramid=2 / b_adapt=2 / b_bias=0 / direct=3 / weightb=1 / open_gop=0 / weightp=2 / keyint=250 / keyint_min=25 / scenecut=40 / intra_refresh=0 / rc_lookahead=50 / rc=2pass / mbtree=1 / bitrate=1500 / ratetol=1.0 / qcomp=0.60 / qpmin=0 / qpmax=69 / qpstep=4 / cplxblur=20.0 / qblur=0.5 / vbv_maxrate=31250 / vbv_bufsize=31250 / nal_hrd=none / filler=0 / ip_ratio=1.40 / aq=3:1.00
Encoded date                             : UTC 2017-06-20 01:05:32
Tagged date                              : UTC 2017-06-20 01:05:32

Audio
ID                                       : 2
Format                                   : AAC
Format/Info                              : Advanced Audio Codec
Format profile                           : LC
Codec ID                                 : 40
Duration                                 : 1 h 29 min
Bit rate mode                            : Constant
Bit rate                                 : 224 kb/s
Channel(s)                               : 2 channels
Channel(s)_Original                      : 6 channels
Channel positions                        : Front: L C R, Side: L R, LFE
Sampling rate                            : 48.0 kHz
Frame rate                               : 46.875 FPS (1024 spf)
Compression mode                         : Lossy
Stream size                              : 144 MiB (13%)
Language                                 : English
Default                                  : Yes
Alternate group                          : 1
Encoded date                             : UTC 2017-06-20 01:05:32
Tagged date                              : UTC 2017-06-20 01:05:32



[/mediainfo]
Download
File Container: MP4
Video/Audio Codec: H264 (HIGH) (AVC1) AAC (LC) (MP4A)
Video Resolution: 1280x720
 
 
 
 
 

Show us some love

Leave a Comment

  • (never displayed)
  •  
        Members don't see captchas. Sign Up / Sign In
  • Notify me via email when someone responds.
  • Subscribe my Feeds
  • Facebook

Latest Episodes

Popular Movies and TV Shows

  • Shooter
  • King Arthur: Legend of the Sword
  • Animal Kingdom
  • Somewhere Between
  • The Dinner
  • Hunter's Prayer
  • Game of Thrones
  • Wrecked
  • In the Dark
  • Batman: Mask of the Phantasm
  • Snatched
  • The Sublet
  • White Collar
  • Bunk'd
  • Preacher
  • Wakefield
  • Diary of a Wimpy Kid: The Long Haul
  • Shot Caller
  • Midnight, Texas
  • Shadowhunters
  • Stitchers
  • Jasper Jones
  • The Ottoman Lieutenant
  • Norman: The Moderate Rise and Tragic Fall of a New York Fixer
  • The Strain

Recent Comments

  • Invitado_500K: ¡Muchas gracias por la versión GAME OF THRONES S07E02 HDTV XVID-RMX de www.rmz.cr en www.rapidrar....
  • Byala: Sorry dnny but you're the one that's wrong. This site posts internals (that's the reason for tchamas...
  • mda:

    1080p HEVC please

  • mda:

    1080p HEVC please

  • dnny: Byala wrong, internal is only use on the SCENE for scene releases not here nor on torrent or other f...
  • dnny:

    WBG nope, just use the ones there are for free for u?

  • thaone:

    Thanks

  • thaone:

    Good movie

  • WBG:

    Hi This Movie Upload To https://clicknupload.org <<Please>>

  • thaone:

    Thanks