Sign Up   |   Sign In  
ShogunNCISImmaculateNCIS: Hawai'iSweet DreamsJimmy Carr: Natural Born KillerThe NeighborhoodSpring BreakersBob Hearts AbisholaAll AmericanThe Fantastic Journey of Margot & MargueriteThe Crow: SalvationThe SympathizerTrackerThe Bold and the BeautifulDune: Part TwoThe 100th: Billy Joel at Madison Square Garden - The Greatest Arena Run of All TimeKiller Fortune TellerThe Great NorthHundreds of BeaversFamily GuyModel HouseWhen Calls the HeartAbba: How They Won EurovisionFallout

Announcements

02/21

2024

1

Comments

The Good Doctor S07E01 Baby Baby Baby 1080p AMZN WEB-DL DDP2 0 H 264-NTb
[RR/NF/CU]
Size: 1.7GB mkv H264 (HIGH) / EAC3  HD  1920x1080

The Good Doctor
File Information
[img]http://lookpic.com/cdn/i2/t/0221202407271704-1.jpg[/img]
[img]http://lookpic.com/cdn/i2/t/0221202407271704-2.jpg[/img]
[img]http://lookpic.com/cdn/i2/t/0221202407271704-3.jpg[/img]

General
Unique ID                                : 225983523391881245304724748821980346217 (0xAA02D7ED3F4BC96D3DDB9FBFB4657769)
Complete name                            : The.Good.Doctor.S07E01.Baby.Baby.Baby.1080p.AMZN.WEB-DL.DDP2.0.H.264-NTb.mkv
Format                                   : Matroska
Format version                           : Version 4
File size                                : 1.75 GiB
Duration                                 : 43 min 10 s
Overall bit rate                         : 5 794 kb/s
Frame rate                               : 23.976 FPS
Writing application                      : mkvmerge v81.0 ('Milliontown') 64-bit
Writing library                          : libebml v1.4.4 + libmatroska v1.7.1

Video
ID                                       : 1
Format                                   : AVC
Format/Info                              : Advanced Video Codec
Format profile                           : High@L4
Format settings                          : CABAC / 4 Ref Frames
Format settings, CABAC                   : Yes
Format settings, Reference frames        : 4 frames
Codec ID                                 : V_MPEG4/ISO/AVC
Duration                                 : 43 min 10 s
Bit rate mode                            : Constant
Bit rate                                 : 5 568 kb/s
Nominal bit rate                         : 10 000 kb/s
Width                                    : 1 920 pixels
Height                                   : 1 080 pixels
Display aspect ratio                     : 16:9
Frame rate mode                          : Constant
Frame rate                               : 23.976 (24000/1001) FPS
Color space                              : YUV
Chroma subsampling                       : 4:2:0
Bit depth                                : 8 bits
Scan type                                : Progressive
Bits/(Pixel*Frame)                       : 0.112
Stream size                              : 1.68 GiB (96%)
Default                                  : Yes
Forced                                   : No
Color range                              : Limited
Color primaries                          : BT.709
Transfer characteristics                 : BT.709
Matrix coefficients                      : BT.709

Audio
ID                                       : 2
Format                                   : E-AC-3
Format/Info                              : Enhanced AC-3
Commercial name                          : Dolby Digital Plus
Codec ID                                 : A_EAC3
Duration                                 : 43 min 10 s
Bit rate mode                            : Constant
Bit rate                                 : 224 kb/s
Channel(s)                               : 2 channels
Channel layout                           : L R
Sampling rate                            : 48.0 kHz
Frame rate                               : 31.250 FPS (1536 SPF)
Compression mode                         : Lossy
Stream size                              : 69.2 MiB (4%)
Language                                 : English (US)
Service kind                             : Complete Main
Default                                  : Yes
Forced                                   : No

Text #1
ID                                       : 3
Format                                   : UTF-8
Codec ID                                 : S_TEXT/UTF8
Codec ID/Info                            : UTF-8 Plain Text
Duration                                 : 42 min 10 s
Bit rate                                 : 78 b/s
Frame rate                               : 0.296 FPS
Count of elements                        : 748
Stream size                              : 24.2 KiB (0%)
Language                                 : English (US)
Default                                  : No
Forced                                   : No

Text #2
ID                                       : 4
Format                                   : UTF-8
Codec ID                                 : S_TEXT/UTF8
Codec ID/Info                            : UTF-8 Plain Text
Duration                                 : 42 min 32 s
Bit rate                                 : 84 b/s
Frame rate                               : 0.322 FPS
Count of elements                        : 822
Stream size                              : 26.2 KiB (0%)
Title                                    : SDH
Language                                 : English (US)
Default                                  : No
Forced                                   : No



Download
File Container: MKV
Video/Audio Codec: H264 (HIGH) EAC3
Video Resolution: 1920x1080

1 Response to "[RR/NF/CU] The Good Doctor S07E01 Baby Baby Baby 1080p AMZN WEB-DL DDP2 0 H 264-NTb (1.7GB)"
02/21/24
17:49:09
ReadyPlayerOne

Thank You

Please Login to post a comment.
If you don't have any account, please Register.
  • Subscribe my Feeds
  • Facebook
Encoding Queue:  x264  x265

Latest Episodes

Popular Movies and TV Shows

  • Shogun
  • NCIS
  • Immaculate
  • NCIS: Hawai'i
  • Sweet Dreams
  • Jimmy Carr: Natural Born Killer
  • The Neighborhood
  • Spring Breakers
  • Bob Hearts Abishola
  • All American
  • The Fantastic Journey of Margot & Marguerite
  • The Crow: Salvation
  • The Sympathizer
  • Tracker
  • The Bold and the Beautiful
  • Dune: Part Two
  • The 100th: Billy Joel at Madison Square Garden - The Greatest Arena Run of All Time
  • Killer Fortune Teller
  • The Great North
  • Hundreds of Beavers
  • Family Guy
  • Model House
  • When Calls the Heart
  • Abba: How They Won Eurovision
  • Fallout

Recent Comments

  • kellym2: Why am I getting "Server is in maintenance mode" on some episodes of a series and not on o...
  • Bud:

    Are you ever going to put up Thursday's episode with Liev Schreiber?

  • alp-engin:

    When will that maintenance be over? Please...

  • mentalityx:

    Rad bloke

  • DownloadHostInspector:

    so far these RMTeam uploads always have a working link. DownloadHostInspector approved!

  • DownloadHostInspector:

    ah yes, this upload has a host that works. clicknupload. DownloadHostInspector approved!

  • DownloadHostInspector: Why are all the download hosts trash? none of them let you download it
  • Qua4ratic:

    clicknupload link plz

  • ppoo:

    Please, can you add "Real Time with Bill Maher S22E11" ??

  • theahtisham:

    Kindly upload Ep. 3 and 4 as well.

Archives