Sign Up   |   Sign In  
The PrimevalsViral HitAll RisePoftiti pe la noiNinja TerminatorHow Music Got FreeThe AcolyteDark MatterPresumed InnocentMysteries of the Terracotta WarriorsThe Beast in the JunglePet SemataryWWE NXTThe Big Door PrizeTryingLost SoulzPeggy Sue Got MarriedMe and Earl and the Dying GirlThe Loud HouseAcapulcoThe Bold and the BeautifulWild Eyed and WickedFrom Russia with LoveA Safari RomanceThe Daily Show

Announcements

05/23

2024

No

Comments

The Good Doctor S07E10 Goodbye 720p AMZN WEB-DL DDP5 1 H 264-NTb
[RR/NF/CU]
Size: 1.1GB mkv H264 (HIGH) / EAC3  HD  1280x720

The Good Doctor
File Information
[img]http://lookpic.com/cdn/i2/t/0523202402391252-1.jpg[/img]
[img]http://lookpic.com/cdn/i2/t/0523202402391252-2.jpg[/img]
[img]http://lookpic.com/cdn/i2/t/0523202402391252-3.jpg[/img]

General
Unique ID                                : 118721940995912473927323741570572909489 (0x5951039D7F8349E611B89C5601C27BB1)
Complete name                            : The Good Doctor S07E10 Goodbye 720p AMZN WEB-DL DDP5 1 H 264-NTb.mkv
Format                                   : Matroska
Format version                           : Version 4
File size                                : 1.13 GiB
Duration                                 : 45 min 40 s
Overall bit rate                         : 3 540 kb/s
Frame rate                               : 23.976 FPS
Writing application                      : mkvmerge v84.0 ('Sleeper') 64-bit
Writing library                          : libebml v1.4.5 + libmatroska v1.7.1

Video
ID                                       : 1
Format                                   : AVC
Format/Info                              : Advanced Video Codec
Format profile                           : High@L3.1
Format settings                          : CABAC / 4 Ref Frames
Format settings, CABAC                   : Yes
Format settings, Reference frames        : 4 frames
Codec ID                                 : V_MPEG4/ISO/AVC
Duration                                 : 45 min 40 s
Bit rate mode                            : Constant
Bit rate                                 : 2 898 kb/s
Nominal bit rate                         : 6 000 kb/s
Width                                    : 1 280 pixels
Height                                   : 720 pixels
Display aspect ratio                     : 16:9
Frame rate mode                          : Constant
Frame rate                               : 23.976 (24000/1001) FPS
Color space                              : YUV
Chroma subsampling                       : 4:2:0
Bit depth                                : 8 bits
Scan type                                : Progressive
Bits/(Pixel*Frame)                       : 0.131
Stream size                              : 947 MiB (82%)
Default                                  : Yes
Forced                                   : No
Color range                              : Limited
Color primaries                          : BT.709
Transfer characteristics                 : BT.709
Matrix coefficients                      : BT.709

Audio
ID                                       : 2
Format                                   : E-AC-3
Format/Info                              : Enhanced AC-3
Commercial name                          : Dolby Digital Plus
Codec ID                                 : A_EAC3
Duration                                 : 45 min 40 s
Bit rate mode                            : Constant
Bit rate                                 : 640 kb/s
Channel(s)                               : 6 channels
Channel layout                           : L R C LFE Ls Rs
Sampling rate                            : 48.0 kHz
Frame rate                               : 31.250 FPS (1536 SPF)
Compression mode                         : Lossy
Stream size                              : 209 MiB (18%)
Language                                 : English (US)
Service kind                             : Complete Main
Default                                  : Yes
Forced                                   : No

Text #1
ID                                       : 3
Format                                   : UTF-8
Codec ID                                 : S_TEXT/UTF8
Codec ID/Info                            : UTF-8 Plain Text
Duration                                 : 44 min 55 s
Bit rate                                 : 60 b/s
Frame rate                               : 0.236 FPS
Count of elements                        : 637
Stream size                              : 20.0 KiB (0%)
Language                                 : English (US)
Default                                  : No
Forced                                   : No

Text #2
ID                                       : 4
Format                                   : UTF-8
Codec ID                                 : S_TEXT/UTF8
Codec ID/Info                            : UTF-8 Plain Text
Duration                                 : 45 min 0 s
Bit rate                                 : 62 b/s
Frame rate                               : 0.247 FPS
Count of elements                        : 667
Stream size                              : 20.7 KiB (0%)
Title                                    : SDH
Language                                 : English (US)
Default                                  : No
Forced                                   : No



Download
File Container: MKV
Video/Audio Codec: H264 (HIGH) EAC3
Video Resolution: 1280x720
Please Login to post a comment.
If you don't have any account, please Register.
  • Subscribe my Feeds
  • Facebook
Encoding Queue:  x264  x265

Latest Episodes

Popular Movies and TV Shows

  • The Primevals
  • Viral Hit
  • All Rise
  • Poftiti pe la noi
  • Ninja Terminator
  • How Music Got Free
  • The Acolyte
  • Dark Matter
  • Presumed Innocent
  • Mysteries of the Terracotta Warriors
  • The Beast in the Jungle
  • Pet Sematary
  • WWE NXT
  • The Big Door Prize
  • Trying
  • Lost Soulz
  • Peggy Sue Got Married
  • Me and Earl and the Dying Girl
  • The Loud House
  • Acapulco
  • The Bold and the Beautiful
  • Wild Eyed and Wicked
  • From Russia with Love
  • A Safari Romance
  • The Daily Show

Recent Comments

  • KissclTum: [url=https://kisstom.ru/prices]имплант с коронкой цена кисс [/url] Tegs: и...
  • Diggety247:

    BrokenHanded, Try using a DL manager.

  • BrokenHanded: clicknupload does not seem to work for past few days. keep getting an error saying the site is sendi...
  • Bud: Helps if you actually add these to the "Late Night with Seth Meyers" page too...
  • rambaldi70:

    Hy! Right now, my download speed : 1 Mb/s
    this is ok?
    Tx answer

  • Cinque_Persson: At 183 MB this had to be something completely different. In fact it's just the main actors commentin...
  • meyat74:

    my bad, should be full season

  • Oscar2:

    Halo "is" a good show

  • MeH:

    "one of the most impressive scenes"

  • rappet:

    Unfortunately, episode 2 not playing and episode 3 half missing (only 37 minutes long).

  • Anovani:

    Nice 1

  • shark:

    Will there be a sequel?

  • sjors:

    This release in in Russian with Russian subs. No English.

  • RapidRabbit98: I'll ask again Forged in Fire Series 11 episode 1 - anyone have it?

Archives