Sign Up   |   Sign In  
Beacon 23ParishScrambledRiddle of FireThe War on ChildrenAll RiseImmoral WomenReal Time with Bill MaherBlood FreeStreet GirlsPacific Rim: UprisingBlueyBlue BloodsS.W.A.T.Grey's AnatomyWhiplashDesaparecer Por CompletoSleeping DogsFalloutFire CountryFBIDamagedLaRoy, TexasT2 TrainspottingSugar

Announcements

02/19

2024

1

Comments

The Great North S04E02 Risky Beefness Adventure 720p DSNP WEB-DL DDP5 1 H 264-NTb
[RR/NF/CU]
Size: 358MB mkv H264 (HIGH) / EAC3  HD  1280x720

The Great North
File Information
[img]http://lookpic.com/cdn/i2/t/0219202410373786-1.jpg[/img]
[img]http://lookpic.com/cdn/i2/t/0219202410373786-2.jpg[/img]
[img]http://lookpic.com/cdn/i2/t/0219202410373786-3.jpg[/img]

General
Unique ID                                : 24719928843273822743412587197409369438 (0x1298E2971BDE7F5F8BA2E8590E719D5E)
Complete name                            : The.Great.North.S04E02.Risky.Beefness.Adventure.720p.DSNP.WEB-DL.DDP5.1.H.264-NTb.mkv
Format                                   : Matroska
Format version                           : Version 4
File size                                : 358 MiB
Duration                                 : 21 min 37 s
Overall bit rate mode                    : Variable
Overall bit rate                         : 2 314 kb/s
Frame rate                               : 23.976 FPS
Writing application                      : mkvmerge v80.0 ('Roundabout') 64-bit
Writing library                          : libebml v1.4.4 + libmatroska v1.7.1

Video
ID                                       : 1
Format                                   : AVC
Format/Info                              : Advanced Video Codec
Format profile                           : High@L3.1
Format settings                          : CABAC / 4 Ref Frames
Format settings, CABAC                   : Yes
Format settings, Reference frames        : 4 frames
Codec ID                                 : V_MPEG4/ISO/AVC
Duration                                 : 21 min 37 s
Bit rate mode                            : Variable
Bit rate                                 : 2 050 kb/s
Maximum bit rate                         : 6 375 kb/s
Width                                    : 1 280 pixels
Height                                   : 720 pixels
Display aspect ratio                     : 16:9
Frame rate mode                          : Constant
Frame rate                               : 23.976 (24000/1001) FPS
Color space                              : YUV
Chroma subsampling                       : 4:2:0
Bit depth                                : 8 bits
Scan type                                : Progressive
Bits/(Pixel*Frame)                       : 0.093
Time code of first frame                 : 00:00:00:0000000000
Stream size                              : 317 MiB (89%)
Default                                  : Yes
Forced                                   : No
Color range                              : Limited
Color primaries                          : BT.709
Transfer characteristics                 : BT.709
Matrix coefficients                      : BT.709

Audio
ID                                       : 2
Format                                   : E-AC-3
Format/Info                              : Enhanced AC-3
Commercial name                          : Dolby Digital Plus
Codec ID                                 : A_EAC3
Duration                                 : 21 min 37 s
Bit rate mode                            : Constant
Bit rate                                 : 256 kb/s
Channel(s)                               : 6 channels
Channel layout                           : L R C LFE Ls Rs
Sampling rate                            : 48.0 kHz
Frame rate                               : 31.250 FPS (1536 SPF)
Compression mode                         : Lossy
Stream size                              : 39.6 MiB (11%)
Language                                 : English
Service kind                             : Complete Main
Default                                  : Yes
Forced                                   : No

Text #1
ID                                       : 3
Format                                   : UTF-8
Codec ID                                 : S_TEXT/UTF8
Codec ID/Info                            : UTF-8 Plain Text
Duration                                 : 21 min 30 s
Bit rate                                 : 130 b/s
Frame rate                               : 0.474 FPS
Count of elements                        : 612
Stream size                              : 20.5 KiB (0%)
Language                                 : English
Default                                  : No
Forced                                   : No

Text #2
ID                                       : 4
Format                                   : UTF-8
Codec ID                                 : S_TEXT/UTF8
Codec ID/Info                            : UTF-8 Plain Text
Duration                                 : 21 min 30 s
Bit rate                                 : 134 b/s
Frame rate                               : 0.485 FPS
Count of elements                        : 626
Stream size                              : 21.3 KiB (0%)
Title                                    : SDH
Language                                 : English
Default                                  : No
Forced                                   : No

Text #3
ID                                       : 5
Format                                   : UTF-8
Codec ID                                 : S_TEXT/UTF8
Codec ID/Info                            : UTF-8 Plain Text
Duration                                 : 21 min 26 s
Bit rate                                 : 109 b/s
Frame rate                               : 0.390 FPS
Count of elements                        : 502
Stream size                              : 17.2 KiB (0%)
Language                                 : Czech
Default                                  : No
Forced                                   : No

Text #4
ID                                       : 6
Format                                   : UTF-8
Codec ID                                 : S_TEXT/UTF8
Codec ID/Info                            : UTF-8 Plain Text
Duration                                 : 21 min 3 s
Bit rate                                 : 112 b/s
Frame rate                               : 0.402 FPS
Count of elements                        : 508
Stream size                              : 17.4 KiB (0%)
Language                                 : Danish
Default                                  : No
Forced                                   : No

Text #5
ID                                       : 7
Format                                   : UTF-8
Codec ID                                 : S_TEXT/UTF8
Codec ID/Info                            : UTF-8 Plain Text
Duration                                 : 21 min 22 s
Bit rate                                 : 122 b/s
Frame rate                               : 0.377 FPS
Count of elements                        : 483
Stream size                              : 19.2 KiB (0%)
Language                                 : German
Default                                  : No
Forced                                   : No

Text #6
ID                                       : 8
Format                                   : UTF-8
Codec ID                                 : S_TEXT/UTF8
Codec ID/Info                            : UTF-8 Plain Text
Duration                                 : 21 min 22 s
Bit rate                                 : 186 b/s
Frame rate                               : 0.354 FPS
Count of elements                        : 454
Stream size                              : 29.2 KiB (0%)
Language                                 : Greek
Default                                  : No
Forced                                   : No

Text #7
ID                                       : 9
Format                                   : UTF-8
Codec ID                                 : S_TEXT/UTF8
Codec ID/Info                            : UTF-8 Plain Text
Duration                                 : 21 min 22 s
Bit rate                                 : 110 b/s
Frame rate                               : 0.325 FPS
Count of elements                        : 417
Stream size                              : 17.2 KiB (0%)
Title                                    : Spanish (Latin America)
Language                                 : Spanish (Latin America)
Default                                  : No
Forced                                   : No

Text #8
ID                                       : 10
Format                                   : UTF-8
Codec ID                                 : S_TEXT/UTF8
Codec ID/Info                            : UTF-8 Plain Text
Duration                                 : 21 min 22 s
Bit rate                                 : 109 b/s
Frame rate                               : 0.369 FPS
Count of elements                        : 473
Stream size                              : 17.1 KiB (0%)
Title                                    : Spanish (Spain)
Language                                 : Spanish (ES)
Default                                  : No
Forced                                   : No

Text #9
ID                                       : 11
Format                                   : UTF-8
Codec ID                                 : S_TEXT/UTF8
Codec ID/Info                            : UTF-8 Plain Text
Duration                                 : 21 min 22 s
Bit rate                                 : 110 b/s
Frame rate                               : 0.366 FPS
Count of elements                        : 470
Stream size                              : 17.2 KiB (0%)
Language                                 : Finnish
Default                                  : No
Forced                                   : No

Text #10
ID                                       : 12
Format                                   : UTF-8
Codec ID                                 : S_TEXT/UTF8
Codec ID/Info                            : UTF-8 Plain Text
Duration                                 : 21 min 22 s
Bit rate                                 : 118 b/s
Frame rate                               : 0.392 FPS
Count of elements                        : 503
Stream size                              : 18.6 KiB (0%)
Language                                 : French (FR)
Default                                  : No
Forced                                   : No

Text #11
ID                                       : 13
Format                                   : UTF-8
Codec ID                                 : S_TEXT/UTF8
Codec ID/Info                            : UTF-8 Plain Text
Duration                                 : 21 min 22 s
Bit rate                                 : 115 b/s
Frame rate                               : 0.400 FPS
Count of elements                        : 513
Stream size                              : 18.1 KiB (0%)
Language                                 : Hungarian
Default                                  : No
Forced                                   : No

Text #12
ID                                       : 14
Format                                   : UTF-8
Codec ID                                 : S_TEXT/UTF8
Codec ID/Info                            : UTF-8 Plain Text
Duration                                 : 21 min 22 s
Bit rate                                 : 107 b/s
Frame rate                               : 0.382 FPS
Count of elements                        : 490
Stream size                              : 16.9 KiB (0%)
Language                                 : Italian
Default                                  : No
Forced                                   : No

Text #13
ID                                       : 15
Format                                   : UTF-8
Codec ID                                 : S_TEXT/UTF8
Codec ID/Info                            : UTF-8 Plain Text
Duration                                 : 21 min 26 s
Bit rate                                 : 93 b/s
Frame rate                               : 0.327 FPS
Count of elements                        : 421
Stream size                              : 14.7 KiB (0%)
Language                                 : Japanese
Default                                  : No
Forced                                   : No

Text #14
ID                                       : 16
Format                                   : UTF-8
Codec ID                                 : S_TEXT/UTF8
Codec ID/Info                            : UTF-8 Plain Text
Duration                                 : 21 min 26 s
Bit rate                                 : 128 b/s
Frame rate                               : 0.400 FPS
Count of elements                        : 515
Stream size                              : 20.2 KiB (0%)
Language                                 : Korean
Default                                  : No
Forced                                   : No

Text #15
ID                                       : 17
Format                                   : UTF-8
Codec ID                                 : S_TEXT/UTF8
Codec ID/Info                            : UTF-8 Plain Text
Duration                                 : 21 min 0 s
Bit rate                                 : 110 b/s
Frame rate                               : 0.379 FPS
Count of elements                        : 477
Stream size                              : 17.0 KiB (0%)
Language                                 : Dutch
Default                                  : No
Forced                                   : No

Text #16
ID                                       : 18
Format                                   : UTF-8
Codec ID                                 : S_TEXT/UTF8
Codec ID/Info                            : UTF-8 Plain Text
Duration                                 : 21 min 22 s
Bit rate                                 : 117 b/s
Frame rate                               : 0.373 FPS
Count of elements                        : 478
Stream size                              : 18.3 KiB (0%)
Language                                 : Norwegian
Default                                  : No
Forced                                   : No

Text #17
ID                                       : 19
Format                                   : UTF-8
Codec ID                                 : S_TEXT/UTF8
Codec ID/Info                            : UTF-8 Plain Text
Duration                                 : 21 min 22 s
Bit rate                                 : 110 b/s
Frame rate                               : 0.356 FPS
Count of elements                        : 457
Stream size                              : 17.3 KiB (0%)
Language                                 : Polish
Default                                  : No
Forced                                   : No

Text #18
ID                                       : 20
Format                                   : UTF-8
Codec ID                                 : S_TEXT/UTF8
Codec ID/Info                            : UTF-8 Plain Text
Duration                                 : 21 min 22 s
Bit rate                                 : 106 b/s
Frame rate                               : 0.393 FPS
Count of elements                        : 504
Stream size                              : 16.6 KiB (0%)
Title                                    : Portuguese (Brazil)
Language                                 : Portuguese (BR)
Default                                  : No
Forced                                   : No

Text #19
ID                                       : 21
Format                                   : UTF-8
Codec ID                                 : S_TEXT/UTF8
Codec ID/Info                            : UTF-8 Plain Text
Duration                                 : 21 min 22 s
Bit rate                                 : 133 b/s
Frame rate                               : 0.398 FPS
Count of elements                        : 510
Stream size                              : 20.8 KiB (0%)
Title                                    : Portuguese (Portugal)
Language                                 : Portuguese (PT)
Default                                  : No
Forced                                   : No

Text #20
ID                                       : 22
Format                                   : UTF-8
Codec ID                                 : S_TEXT/UTF8
Codec ID/Info                            : UTF-8 Plain Text
Duration                                 : 21 min 26 s
Bit rate                                 : 112 b/s
Frame rate                               : 0.343 FPS
Count of elements                        : 441
Stream size                              : 17.7 KiB (0%)
Language                                 : Romanian
Default                                  : No
Forced                                   : No

Text #21
ID                                       : 23
Format                                   : UTF-8
Codec ID                                 : S_TEXT/UTF8
Codec ID/Info                            : UTF-8 Plain Text
Duration                                 : 21 min 0 s
Bit rate                                 : 116 b/s
Frame rate                               : 0.396 FPS
Count of elements                        : 499
Stream size                              : 17.9 KiB (0%)
Language                                 : Slovak
Default                                  : No
Forced                                   : No

Text #22
ID                                       : 24
Format                                   : UTF-8
Codec ID                                 : S_TEXT/UTF8
Codec ID/Info                            : UTF-8 Plain Text
Duration                                 : 21 min 22 s
Bit rate                                 : 110 b/s
Frame rate                               : 0.395 FPS
Count of elements                        : 507
Stream size                              : 17.3 KiB (0%)
Language                                 : Swedish
Default                                  : No
Forced                                   : No

Text #23
ID                                       : 25
Format                                   : UTF-8
Codec ID                                 : S_TEXT/UTF8
Codec ID/Info                            : UTF-8 Plain Text
Duration                                 : 21 min 0 s
Bit rate                                 : 130 b/s
Frame rate                               : 0.383 FPS
Count of elements                        : 482
Stream size                              : 20.0 KiB (0%)
Language                                 : Turkish
Default                                  : No
Forced                                   : No

Text #24
ID                                       : 26
Format                                   : UTF-8
Codec ID                                 : S_TEXT/UTF8
Codec ID/Info                            : UTF-8 Plain Text
Duration                                 : 21 min 26 s
Bit rate                                 : 113 b/s
Frame rate                               : 0.399 FPS
Count of elements                        : 514
Stream size                              : 17.8 KiB (0%)
Language                                 : Chinese (Traditional)
Default                                  : No
Forced                                   : No



Download
File Container: MKV
Video/Audio Codec: H264 (HIGH) EAC3
Video Resolution: 1280x720

1 Response to "[RR/NF/CU] The Great North S04E02 Risky Beefness Adventure 720p DSNP WEB-DL DDP5 1 H 264-NTb (358MB)"
02/19/24
23:12:31
ReadyPlayerOne

Thank you!

Please Login to post a comment.
If you don't have any account, please Register.
  • Subscribe my Feeds
  • Facebook
Encoding Queue:  x264  x265

Latest Episodes

Popular Movies and TV Shows

  • Beacon 23
  • Parish
  • Scrambled
  • Riddle of Fire
  • The War on Children
  • All Rise
  • Immoral Women
  • Real Time with Bill Maher
  • Blood Free
  • Street Girls
  • Pacific Rim: Uprising
  • Bluey
  • Blue Bloods
  • S.W.A.T.
  • Grey's Anatomy
  • Whiplash
  • Desaparecer Por Completo
  • Sleeping Dogs
  • Fallout
  • Fire Country
  • FBI
  • Damaged
  • LaRoy, Texas
  • T2 Trainspotting
  • Sugar

Recent Comments

  • DownloadHostInspector:

    so far these RMTeam uploads always have a working link. DownloadHostInspector approved!

  • DownloadHostInspector:

    ah yes, this upload has a host that works. clicknupload. DownloadHostInspector approved!

  • DownloadHostInspector: Why are all the download hosts trash? none of them let you download it
  • Qua4ratic:

    clicknupload link plz

  • ppoo:

    Please, can you add "Real Time with Bill Maher S22E11" ??

  • theahtisham:

    Kindly upload Ep. 3 and 4 as well.

  • Kudzu: Update on sound issue, File's codec info says stereo but is only a the left channel If I switch i...
  • Admin:

    kang
    Getting error while encoding, sorry

  • rambaldi70:

    sorry this release ok.
    but descripton is bad
    (Duration: 2h56m7s)

Archives