Sign Up   |   Sign In  
Beacon 23Interview with the VampireGaga Chromatica BallThe Young OffendersBob Marley: One LoveLooperAtlasFBI: Most WantedThe Zone of InterestLove and MonstersThe NevermetsAt the End of the NightRebusThe RookieCivil WarSouth ParkFuriosa: A Mad Max SagaKnox Goes AwayWWE NXTStar Trek: DiscoverySurvivorThe Fall GuySouth Park: The End of Obesity5lbs of PressureThe Daily Show

Announcements

04/17

2024

No

Comments

The Great North S04E09 Idita-Ruth Adventure 1080p DSNP WEB-DL DDP5 1 H 264-NTb
[RR/NF/CU]
Size: 631MB mkv H264 (HIGH) / EAC3  HD  1920x1080

The Great North
File Information
[img]http://lookpic.com/cdn/i2/t/0417202419003191-1.jpg[/img]
[img]http://lookpic.com/cdn/i2/t/0417202419003191-2.jpg[/img]
[img]http://lookpic.com/cdn/i2/t/0417202419003191-3.jpg[/img]

General
Unique ID                                : 275143811246516069337063164216165820688 (0xCEFEC540181BC98BE6E877B7AAD86910)
Complete name                            : The Great North S04E09 Idita-Ruth Adventure 1080p DSNP WEB-DL DDP5 1 H 264-NTb.mkv
Format                                   : Matroska
Format version                           : Version 4
File size                                : 631 MiB
Duration                                 : 21 min 7 s
Overall bit rate mode                    : Variable
Overall bit rate                         : 4 177 kb/s
Frame rate                               : 23.976 FPS
Writing application                      : mkvmerge v80.0 ('Roundabout') 64-bit
Writing library                          : libebml v1.4.4 + libmatroska v1.7.1

Video
ID                                       : 1
Format                                   : AVC
Format/Info                              : Advanced Video Codec
Format profile                           : High@L4
Format settings                          : CABAC / 4 Ref Frames
Format settings, CABAC                   : Yes
Format settings, Reference frames        : 4 frames
Codec ID                                 : V_MPEG4/ISO/AVC
Duration                                 : 21 min 7 s
Bit rate mode                            : Variable
Bit rate                                 : 3 914 kb/s
Maximum bit rate                         : 12.7 Mb/s
Width                                    : 1 920 pixels
Height                                   : 1 080 pixels
Display aspect ratio                     : 16:9
Frame rate mode                          : Constant
Frame rate                               : 23.976 (24000/1001) FPS
Color space                              : YUV
Chroma subsampling                       : 4:2:0
Bit depth                                : 8 bits
Scan type                                : Progressive
Bits/(Pixel*Frame)                       : 0.079
Time code of first frame                 : 00:00:00:0000000000
Stream size                              : 592 MiB (94%)
Default                                  : Yes
Forced                                   : No
Color range                              : Limited
Color primaries                          : BT.709
Transfer characteristics                 : BT.709
Matrix coefficients                      : BT.709

Audio
ID                                       : 2
Format                                   : E-AC-3
Format/Info                              : Enhanced AC-3
Commercial name                          : Dolby Digital Plus
Codec ID                                 : A_EAC3
Duration                                 : 21 min 7 s
Bit rate mode                            : Constant
Bit rate                                 : 256 kb/s
Channel(s)                               : 6 channels
Channel layout                           : L R C LFE Ls Rs
Sampling rate                            : 48.0 kHz
Frame rate                               : 31.250 FPS (1536 SPF)
Compression mode                         : Lossy
Stream size                              : 38.7 MiB (6%)
Language                                 : English
Service kind                             : Complete Main
Default                                  : Yes
Forced                                   : No

Text #1
ID                                       : 3
Format                                   : UTF-8
Codec ID                                 : S_TEXT/UTF8
Codec ID/Info                            : UTF-8 Plain Text
Duration                                 : 21 min 1 s
Bit rate                                 : 143 b/s
Frame rate                               : 0.401 FPS
Count of elements                        : 506
Stream size                              : 22.0 KiB (0%)
Language                                 : English
Default                                  : No
Forced                                   : No

Text #2
ID                                       : 4
Format                                   : UTF-8
Codec ID                                 : S_TEXT/UTF8
Codec ID/Info                            : UTF-8 Plain Text
Duration                                 : 21 min 1 s
Bit rate                                 : 147 b/s
Frame rate                               : 0.409 FPS
Count of elements                        : 516
Stream size                              : 22.7 KiB (0%)
Title                                    : SDH
Language                                 : English
Default                                  : No
Forced                                   : No

Text #3
ID                                       : 5
Format                                   : UTF-8
Codec ID                                 : S_TEXT/UTF8
Codec ID/Info                            : UTF-8 Plain Text
Duration                                 : 20 min 56 s
Bit rate                                 : 116 b/s
Frame rate                               : 0.366 FPS
Count of elements                        : 460
Stream size                              : 17.9 KiB (0%)
Language                                 : Czech
Default                                  : No
Forced                                   : No

Text #4
ID                                       : 6
Format                                   : UTF-8
Codec ID                                 : S_TEXT/UTF8
Codec ID/Info                            : UTF-8 Plain Text
Duration                                 : 20 min 33 s
Bit rate                                 : 124 b/s
Frame rate                               : 0.395 FPS
Count of elements                        : 487
Stream size                              : 18.8 KiB (0%)
Language                                 : Danish
Default                                  : No
Forced                                   : No

Text #5
ID                                       : 7
Format                                   : UTF-8
Codec ID                                 : S_TEXT/UTF8
Codec ID/Info                            : UTF-8 Plain Text
Duration                                 : 20 min 52 s
Bit rate                                 : 125 b/s
Frame rate                               : 0.360 FPS
Count of elements                        : 451
Stream size                              : 19.2 KiB (0%)
Language                                 : German
Default                                  : No
Forced                                   : No

Text #6
ID                                       : 8
Format                                   : UTF-8
Codec ID                                 : S_TEXT/UTF8
Codec ID/Info                            : UTF-8 Plain Text
Duration                                 : 20 min 52 s
Bit rate                                 : 197 b/s
Frame rate                               : 0.353 FPS
Count of elements                        : 442
Stream size                              : 30.2 KiB (0%)
Language                                 : Greek
Default                                  : No
Forced                                   : No

Text #7
ID                                       : 9
Format                                   : UTF-8
Codec ID                                 : S_TEXT/UTF8
Codec ID/Info                            : UTF-8 Plain Text
Duration                                 : 20 min 52 s
Bit rate                                 : 118 b/s
Frame rate                               : 0.351 FPS
Count of elements                        : 440
Stream size                              : 18.0 KiB (0%)
Title                                    : Spanish (Latin America)
Language                                 : Spanish (Latin America)
Default                                  : No
Forced                                   : No

Text #8
ID                                       : 10
Format                                   : UTF-8
Codec ID                                 : S_TEXT/UTF8
Codec ID/Info                            : UTF-8 Plain Text
Duration                                 : 20 min 52 s
Bit rate                                 : 114 b/s
Frame rate                               : 0.349 FPS
Count of elements                        : 437
Stream size                              : 17.5 KiB (0%)
Title                                    : Spanish (Spain)
Language                                 : Spanish (ES)
Default                                  : No
Forced                                   : No

Text #9
ID                                       : 11
Format                                   : UTF-8
Codec ID                                 : S_TEXT/UTF8
Codec ID/Info                            : UTF-8 Plain Text
Duration                                 : 20 min 52 s
Bit rate                                 : 117 b/s
Frame rate                               : 0.339 FPS
Count of elements                        : 425
Stream size                              : 18.0 KiB (0%)
Language                                 : Finnish
Default                                  : No
Forced                                   : No

Text #10
ID                                       : 12
Format                                   : UTF-8
Codec ID                                 : S_TEXT/UTF8
Codec ID/Info                            : UTF-8 Plain Text
Duration                                 : 20 min 52 s
Bit rate                                 : 126 b/s
Frame rate                               : 0.383 FPS
Count of elements                        : 480
Stream size                              : 19.3 KiB (0%)
Language                                 : French (FR)
Default                                  : No
Forced                                   : No

Text #11
ID                                       : 13
Format                                   : UTF-8
Codec ID                                 : S_TEXT/UTF8
Codec ID/Info                            : UTF-8 Plain Text
Duration                                 : 20 min 52 s
Bit rate                                 : 125 b/s
Frame rate                               : 0.395 FPS
Count of elements                        : 495
Stream size                              : 19.2 KiB (0%)
Language                                 : Hungarian
Default                                  : No
Forced                                   : No

Text #12
ID                                       : 14
Format                                   : UTF-8
Codec ID                                 : S_TEXT/UTF8
Codec ID/Info                            : UTF-8 Plain Text
Duration                                 : 20 min 52 s
Bit rate                                 : 114 b/s
Frame rate                               : 0.370 FPS
Count of elements                        : 463
Stream size                              : 17.5 KiB (0%)
Language                                 : Italian
Default                                  : No
Forced                                   : No

Text #13
ID                                       : 15
Format                                   : UTF-8
Codec ID                                 : S_TEXT/UTF8
Codec ID/Info                            : UTF-8 Plain Text
Duration                                 : 20 min 56 s
Bit rate                                 : 99 b/s
Frame rate                               : 0.327 FPS
Count of elements                        : 411
Stream size                              : 15.2 KiB (0%)
Language                                 : Japanese
Default                                  : No
Forced                                   : No

Text #14
ID                                       : 16
Format                                   : UTF-8
Codec ID                                 : S_TEXT/UTF8
Codec ID/Info                            : UTF-8 Plain Text
Duration                                 : 20 min 56 s
Bit rate                                 : 133 b/s
Frame rate                               : 0.394 FPS
Count of elements                        : 495
Stream size                              : 20.5 KiB (0%)
Language                                 : Korean
Default                                  : No
Forced                                   : No

Text #15
ID                                       : 17
Format                                   : UTF-8
Codec ID                                 : S_TEXT/UTF8
Codec ID/Info                            : UTF-8 Plain Text
Duration                                 : 20 min 30 s
Bit rate                                 : 120 b/s
Frame rate                               : 0.360 FPS
Count of elements                        : 443
Stream size                              : 18.1 KiB (0%)
Language                                 : Dutch
Default                                  : No
Forced                                   : No

Text #16
ID                                       : 18
Format                                   : UTF-8
Codec ID                                 : S_TEXT/UTF8
Codec ID/Info                            : UTF-8 Plain Text
Duration                                 : 20 min 52 s
Bit rate                                 : 124 b/s
Frame rate                               : 0.372 FPS
Count of elements                        : 466
Stream size                              : 19.0 KiB (0%)
Language                                 : Norwegian
Default                                  : No
Forced                                   : No

Text #17
ID                                       : 19
Format                                   : UTF-8
Codec ID                                 : S_TEXT/UTF8
Codec ID/Info                            : UTF-8 Plain Text
Duration                                 : 20 min 52 s
Bit rate                                 : 116 b/s
Frame rate                               : 0.362 FPS
Count of elements                        : 453
Stream size                              : 17.8 KiB (0%)
Language                                 : Polish
Default                                  : No
Forced                                   : No

Text #18
ID                                       : 20
Format                                   : UTF-8
Codec ID                                 : S_TEXT/UTF8
Codec ID/Info                            : UTF-8 Plain Text
Duration                                 : 20 min 52 s
Bit rate                                 : 112 b/s
Frame rate                               : 0.378 FPS
Count of elements                        : 473
Stream size                              : 17.2 KiB (0%)
Title                                    : Portuguese (Brazil)
Language                                 : Portuguese (BR)
Default                                  : No
Forced                                   : No

Text #19
ID                                       : 21
Format                                   : UTF-8
Codec ID                                 : S_TEXT/UTF8
Codec ID/Info                            : UTF-8 Plain Text
Duration                                 : 20 min 52 s
Bit rate                                 : 144 b/s
Frame rate                               : 0.390 FPS
Count of elements                        : 488
Stream size                              : 22.1 KiB (0%)
Title                                    : Portuguese (Portugal)
Language                                 : Portuguese (PT)
Default                                  : No
Forced                                   : No

Text #20
ID                                       : 22
Format                                   : UTF-8
Codec ID                                 : S_TEXT/UTF8
Codec ID/Info                            : UTF-8 Plain Text
Duration                                 : 20 min 56 s
Bit rate                                 : 119 b/s
Frame rate                               : 0.321 FPS
Count of elements                        : 403
Stream size                              : 18.3 KiB (0%)
Language                                 : Romanian
Default                                  : No
Forced                                   : No

Text #21
ID                                       : 23
Format                                   : UTF-8
Codec ID                                 : S_TEXT/UTF8
Codec ID/Info                            : UTF-8 Plain Text
Duration                                 : 20 min 30 s
Bit rate                                 : 123 b/s
Frame rate                               : 0.394 FPS
Count of elements                        : 485
Stream size                              : 18.5 KiB (0%)
Language                                 : Slovak
Default                                  : No
Forced                                   : No

Text #22
ID                                       : 24
Format                                   : UTF-8
Codec ID                                 : S_TEXT/UTF8
Codec ID/Info                            : UTF-8 Plain Text
Duration                                 : 20 min 52 s
Bit rate                                 : 117 b/s
Frame rate                               : 0.392 FPS
Count of elements                        : 491
Stream size                              : 17.9 KiB (0%)
Language                                 : Swedish
Default                                  : No
Forced                                   : No

Text #23
ID                                       : 25
Format                                   : UTF-8
Codec ID                                 : S_TEXT/UTF8
Codec ID/Info                            : UTF-8 Plain Text
Duration                                 : 20 min 30 s
Bit rate                                 : 131 b/s
Frame rate                               : 0.361 FPS
Count of elements                        : 444
Stream size                              : 19.7 KiB (0%)
Language                                 : Turkish
Default                                  : No
Forced                                   : No

Text #24
ID                                       : 26
Format                                   : UTF-8
Codec ID                                 : S_TEXT/UTF8
Codec ID/Info                            : UTF-8 Plain Text
Duration                                 : 20 min 56 s
Bit rate                                 : 125 b/s
Frame rate                               : 0.392 FPS
Count of elements                        : 493
Stream size                              : 19.2 KiB (0%)
Language                                 : Chinese (Traditional)
Default                                  : No
Forced                                   : No



Download
File Container: MKV
Video/Audio Codec: H264 (HIGH) EAC3
Video Resolution: 1920x1080
Please Login to post a comment.
If you don't have any account, please Register.
  • Subscribe my Feeds
  • Facebook
Encoding Queue:  x264  x265

Latest Episodes

Popular Movies and TV Shows

  • Beacon 23
  • Interview with the Vampire
  • Gaga Chromatica Ball
  • The Young Offenders
  • Bob Marley: One Love
  • Looper
  • Atlas
  • FBI: Most Wanted
  • The Zone of Interest
  • Love and Monsters
  • The Nevermets
  • At the End of the Night
  • Rebus
  • The Rookie
  • Civil War
  • South Park
  • Furiosa: A Mad Max Saga
  • Knox Goes Away
  • WWE NXT
  • Star Trek: Discovery
  • Survivor
  • The Fall Guy
  • South Park: The End of Obesity
  • 5lbs of Pressure
  • The Daily Show

Recent Comments

  • GubeShitemon: This is a different movie to the artwork version. Not the Dylan McDermott film but the Ben Affleck f...
  • Wrapt: Hahahaha yeah right make a liar out of me but I was referring to comments made about a movie or an e...
  • Wrapt: Comments are not always appearing in the Recent Comments list after submitting a comment any reason ...
  • waanaabe:

    warning: speaks German Swedish and French for those without English subs...

  • spiker1961:

    The audio on this is a commentary track, not the actual film audio.

  • spiker1961:

    The audio on this is a commentary track, not the film audio.

  • DuranDuran: The MS PAT show - - Does anyone have BOTH the MS PAT show (SEASON 4) & (SEASON 3) that just cam...
  • newuser:

    need english subtitles

  • Demonz:

    WTH is this

    NO season info and parts 1-13

  • meyat74:

    please add if possible new episodes 5-6

  • DuranDuran: THE MS PAT show = Does anyone have BOTH the MS PAT show (SEASON 3)-and- (SEASON 4) that just came ou...
  • big_ralphie: Just sitting down to watch and, yes there are subtitles...in ITALIAN ONLY. ENGLISH subs might be hel...
  • Geependo:

    All links are dead

Archives