Sign Up   |   Sign In  
My Life Is MurderMission: Yozakura FamilyGo! Go! Loser Ranger!The Zone of InterestBob Marley: One LoveBeacon 23Interview with the VampireGaga Chromatica BallThe Young OffendersLooperAtlasThe RookieRebusCivil WarSouth ParkFuriosa: A Mad Max SagaKnox Goes AwayWWE NXTStar Trek: DiscoverySurvivorThe Fall Guy5lbs of PressureSouth Park: The End of ObesityThe Daily ShowBlue Bloods

Announcements

04/17

2024

No

Comments

The Great North S04E10 A Chugs Life Adventure 720p DSNP WEB-DL DDP5 1 H 264-NTb
[RR/NF/CU]
Size: 344MB mkv H264 (HIGH) / EAC3  HD  1280x720

The Great North
File Information
[img]http://lookpic.com/cdn/i2/t/0417202419004124-1.jpg[/img]
[img]http://lookpic.com/cdn/i2/t/0417202419004124-2.jpg[/img]
[img]http://lookpic.com/cdn/i2/t/0417202419004124-3.jpg[/img]

General
Unique ID                                : 214027590840609948891558055354822237592 (0xA10436F0D840834D4DE42CDA37BB1D98)
Complete name                            : The Great North S04E10 A Chugs Life Adventure 720p DSNP WEB-DL DDP5 1 H 264-NTb.mkv
Format                                   : Matroska
Format version                           : Version 4
File size                                : 344 MiB
Duration                                 : 20 min 47 s
Overall bit rate mode                    : Variable
Overall bit rate                         : 2 314 kb/s
Frame rate                               : 23.976 FPS
Writing application                      : mkvmerge v80.0 ('Roundabout') 64-bit
Writing library                          : libebml v1.4.4 + libmatroska v1.7.1

Video
ID                                       : 1
Format                                   : AVC
Format/Info                              : Advanced Video Codec
Format profile                           : High@L3.1
Format settings                          : CABAC / 4 Ref Frames
Format settings, CABAC                   : Yes
Format settings, Reference frames        : 4 frames
Codec ID                                 : V_MPEG4/ISO/AVC
Duration                                 : 20 min 47 s
Bit rate mode                            : Variable
Bit rate                                 : 2 051 kb/s
Maximum bit rate                         : 6 375 kb/s
Width                                    : 1 280 pixels
Height                                   : 720 pixels
Display aspect ratio                     : 16:9
Frame rate mode                          : Constant
Frame rate                               : 23.976 (24000/1001) FPS
Color space                              : YUV
Chroma subsampling                       : 4:2:0
Bit depth                                : 8 bits
Scan type                                : Progressive
Bits/(Pixel*Frame)                       : 0.093
Time code of first frame                 : 00:00:00:0000000000
Stream size                              : 305 MiB (89%)
Default                                  : Yes
Forced                                   : No
Color range                              : Limited
Color primaries                          : BT.709
Transfer characteristics                 : BT.709
Matrix coefficients                      : BT.709

Audio
ID                                       : 2
Format                                   : E-AC-3
Format/Info                              : Enhanced AC-3
Commercial name                          : Dolby Digital Plus
Codec ID                                 : A_EAC3
Duration                                 : 20 min 47 s
Bit rate mode                            : Constant
Bit rate                                 : 256 kb/s
Channel(s)                               : 6 channels
Channel layout                           : L R C LFE Ls Rs
Sampling rate                            : 48.0 kHz
Frame rate                               : 31.250 FPS (1536 SPF)
Compression mode                         : Lossy
Stream size                              : 38.1 MiB (11%)
Language                                 : English
Service kind                             : Complete Main
Default                                  : Yes
Forced                                   : No

Text #1
ID                                       : 3
Format                                   : UTF-8
Codec ID                                 : S_TEXT/UTF8
Codec ID/Info                            : UTF-8 Plain Text
Duration                                 : 20 min 41 s
Bit rate                                 : 135 b/s
Frame rate                               : 0.405 FPS
Count of elements                        : 503
Stream size                              : 20.5 KiB (0%)
Language                                 : English
Default                                  : No
Forced                                   : No

Text #2
ID                                       : 4
Format                                   : UTF-8
Codec ID                                 : S_TEXT/UTF8
Codec ID/Info                            : UTF-8 Plain Text
Duration                                 : 20 min 41 s
Bit rate                                 : 143 b/s
Frame rate                               : 0.423 FPS
Count of elements                        : 525
Stream size                              : 21.7 KiB (0%)
Title                                    : SDH
Language                                 : English
Default                                  : No
Forced                                   : No

Text #3
ID                                       : 5
Format                                   : UTF-8
Codec ID                                 : S_TEXT/UTF8
Codec ID/Info                            : UTF-8 Plain Text
Duration                                 : 20 min 36 s
Bit rate                                 : 108 b/s
Frame rate                               : 0.361 FPS
Count of elements                        : 446
Stream size                              : 16.4 KiB (0%)
Language                                 : Czech
Default                                  : No
Forced                                   : No

Text #4
ID                                       : 6
Format                                   : UTF-8
Codec ID                                 : S_TEXT/UTF8
Codec ID/Info                            : UTF-8 Plain Text
Duration                                 : 20 min 13 s
Bit rate                                 : 116 b/s
Frame rate                               : 0.379 FPS
Count of elements                        : 460
Stream size                              : 17.2 KiB (0%)
Language                                 : Danish
Default                                  : No
Forced                                   : No

Text #5
ID                                       : 7
Format                                   : UTF-8
Codec ID                                 : S_TEXT/UTF8
Codec ID/Info                            : UTF-8 Plain Text
Duration                                 : 20 min 10 s
Bit rate                                 : 123 b/s
Frame rate                               : 0.359 FPS
Count of elements                        : 434
Stream size                              : 18.2 KiB (0%)
Language                                 : German
Default                                  : No
Forced                                   : No

Text #6
ID                                       : 8
Format                                   : UTF-8
Codec ID                                 : S_TEXT/UTF8
Codec ID/Info                            : UTF-8 Plain Text
Duration                                 : 20 min 32 s
Bit rate                                 : 180 b/s
Frame rate                               : 0.338 FPS
Count of elements                        : 417
Stream size                              : 27.2 KiB (0%)
Language                                 : Greek
Default                                  : No
Forced                                   : No

Text #7
ID                                       : 9
Format                                   : UTF-8
Codec ID                                 : S_TEXT/UTF8
Codec ID/Info                            : UTF-8 Plain Text
Duration                                 : 20 min 32 s
Bit rate                                 : 111 b/s
Frame rate                               : 0.342 FPS
Count of elements                        : 421
Stream size                              : 16.8 KiB (0%)
Title                                    : Spanish (Latin America)
Language                                 : Spanish (Latin America)
Default                                  : No
Forced                                   : No

Text #8
ID                                       : 10
Format                                   : UTF-8
Codec ID                                 : S_TEXT/UTF8
Codec ID/Info                            : UTF-8 Plain Text
Duration                                 : 20 min 32 s
Bit rate                                 : 106 b/s
Frame rate                               : 0.354 FPS
Count of elements                        : 436
Stream size                              : 16.1 KiB (0%)
Title                                    : Spanish (Spain)
Language                                 : Spanish (ES)
Default                                  : No
Forced                                   : No

Text #9
ID                                       : 11
Format                                   : UTF-8
Codec ID                                 : S_TEXT/UTF8
Codec ID/Info                            : UTF-8 Plain Text
Duration                                 : 20 min 32 s
Bit rate                                 : 114 b/s
Frame rate                               : 0.354 FPS
Count of elements                        : 437
Stream size                              : 17.2 KiB (0%)
Language                                 : Finnish
Default                                  : No
Forced                                   : No

Text #10
ID                                       : 12
Format                                   : UTF-8
Codec ID                                 : S_TEXT/UTF8
Codec ID/Info                            : UTF-8 Plain Text
Duration                                 : 20 min 32 s
Bit rate                                 : 119 b/s
Frame rate                               : 0.363 FPS
Count of elements                        : 447
Stream size                              : 17.9 KiB (0%)
Language                                 : French (FR)
Default                                  : No
Forced                                   : No

Text #11
ID                                       : 13
Format                                   : UTF-8
Codec ID                                 : S_TEXT/UTF8
Codec ID/Info                            : UTF-8 Plain Text
Duration                                 : 20 min 32 s
Bit rate                                 : 117 b/s
Frame rate                               : 0.374 FPS
Count of elements                        : 461
Stream size                              : 17.7 KiB (0%)
Language                                 : Hungarian
Default                                  : No
Forced                                   : No

Text #12
ID                                       : 14
Format                                   : UTF-8
Codec ID                                 : S_TEXT/UTF8
Codec ID/Info                            : UTF-8 Plain Text
Duration                                 : 20 min 32 s
Bit rate                                 : 106 b/s
Frame rate                               : 0.354 FPS
Count of elements                        : 437
Stream size                              : 16.1 KiB (0%)
Language                                 : Italian
Default                                  : No
Forced                                   : No

Text #13
ID                                       : 15
Format                                   : UTF-8
Codec ID                                 : S_TEXT/UTF8
Codec ID/Info                            : UTF-8 Plain Text
Duration                                 : 20 min 36 s
Bit rate                                 : 96 b/s
Frame rate                               : 0.329 FPS
Count of elements                        : 407
Stream size                              : 14.6 KiB (0%)
Language                                 : Japanese
Default                                  : No
Forced                                   : No

Text #14
ID                                       : 16
Format                                   : UTF-8
Codec ID                                 : S_TEXT/UTF8
Codec ID/Info                            : UTF-8 Plain Text
Duration                                 : 20 min 36 s
Bit rate                                 : 125 b/s
Frame rate                               : 0.374 FPS
Count of elements                        : 462
Stream size                              : 19.0 KiB (0%)
Language                                 : Korean
Default                                  : No
Forced                                   : No

Text #15
ID                                       : 17
Format                                   : UTF-8
Codec ID                                 : S_TEXT/UTF8
Codec ID/Info                            : UTF-8 Plain Text
Duration                                 : 20 min 10 s
Bit rate                                 : 111 b/s
Frame rate                               : 0.345 FPS
Count of elements                        : 418
Stream size                              : 16.5 KiB (0%)
Language                                 : Dutch
Default                                  : No
Forced                                   : No

Text #16
ID                                       : 18
Format                                   : UTF-8
Codec ID                                 : S_TEXT/UTF8
Codec ID/Info                            : UTF-8 Plain Text
Duration                                 : 20 min 32 s
Bit rate                                 : 116 b/s
Frame rate                               : 0.367 FPS
Count of elements                        : 452
Stream size                              : 17.5 KiB (0%)
Language                                 : Norwegian
Default                                  : No
Forced                                   : No

Text #17
ID                                       : 19
Format                                   : UTF-8
Codec ID                                 : S_TEXT/UTF8
Codec ID/Info                            : UTF-8 Plain Text
Duration                                 : 20 min 32 s
Bit rate                                 : 109 b/s
Frame rate                               : 0.353 FPS
Count of elements                        : 435
Stream size                              : 16.5 KiB (0%)
Language                                 : Polish
Default                                  : No
Forced                                   : No

Text #18
ID                                       : 20
Format                                   : UTF-8
Codec ID                                 : S_TEXT/UTF8
Codec ID/Info                            : UTF-8 Plain Text
Duration                                 : 20 min 32 s
Bit rate                                 : 109 b/s
Frame rate                               : 0.367 FPS
Count of elements                        : 452
Stream size                              : 16.5 KiB (0%)
Title                                    : Portuguese (Brazil)
Language                                 : Portuguese (BR)
Default                                  : No
Forced                                   : No

Text #19
ID                                       : 21
Format                                   : UTF-8
Codec ID                                 : S_TEXT/UTF8
Codec ID/Info                            : UTF-8 Plain Text
Duration                                 : 20 min 32 s
Bit rate                                 : 134 b/s
Frame rate                               : 0.371 FPS
Count of elements                        : 457
Stream size                              : 20.3 KiB (0%)
Title                                    : Portuguese (Portugal)
Language                                 : Portuguese (PT)
Default                                  : No
Forced                                   : No

Text #20
ID                                       : 22
Format                                   : UTF-8
Codec ID                                 : S_TEXT/UTF8
Codec ID/Info                            : UTF-8 Plain Text
Duration                                 : 20 min 36 s
Bit rate                                 : 113 b/s
Frame rate                               : 0.322 FPS
Count of elements                        : 398
Stream size                              : 17.1 KiB (0%)
Language                                 : Romanian
Default                                  : No
Forced                                   : No

Text #21
ID                                       : 23
Format                                   : UTF-8
Codec ID                                 : S_TEXT/UTF8
Codec ID/Info                            : UTF-8 Plain Text
Duration                                 : 20 min 10 s
Bit rate                                 : 114 b/s
Frame rate                               : 0.373 FPS
Count of elements                        : 452
Stream size                              : 17.0 KiB (0%)
Language                                 : Slovak
Default                                  : No
Forced                                   : No

Text #22
ID                                       : 24
Format                                   : UTF-8
Codec ID                                 : S_TEXT/UTF8
Codec ID/Info                            : UTF-8 Plain Text
Duration                                 : 20 min 32 s
Bit rate                                 : 108 b/s
Frame rate                               : 0.368 FPS
Count of elements                        : 454
Stream size                              : 16.3 KiB (0%)
Language                                 : Swedish
Default                                  : No
Forced                                   : No

Text #23
ID                                       : 25
Format                                   : UTF-8
Codec ID                                 : S_TEXT/UTF8
Codec ID/Info                            : UTF-8 Plain Text
Duration                                 : 20 min 10 s
Bit rate                                 : 123 b/s
Frame rate                               : 0.349 FPS
Count of elements                        : 422
Stream size                              : 18.3 KiB (0%)
Language                                 : Turkish
Default                                  : No
Forced                                   : No

Text #24
ID                                       : 26
Format                                   : UTF-8
Codec ID                                 : S_TEXT/UTF8
Codec ID/Info                            : UTF-8 Plain Text
Duration                                 : 20 min 36 s
Bit rate                                 : 118 b/s
Frame rate                               : 0.374 FPS
Count of elements                        : 462
Stream size                              : 18.0 KiB (0%)
Language                                 : Chinese (Traditional)
Default                                  : No
Forced                                   : No



Download
File Container: MKV
Video/Audio Codec: H264 (HIGH) EAC3
Video Resolution: 1280x720
Please Login to post a comment.
If you don't have any account, please Register.
  • Subscribe my Feeds
  • Facebook
Encoding Queue:  x264  x265

Latest Episodes

Popular Movies and TV Shows

  • My Life Is Murder
  • Mission: Yozakura Family
  • Go! Go! Loser Ranger!
  • The Zone of Interest
  • Bob Marley: One Love
  • Beacon 23
  • Interview with the Vampire
  • Gaga Chromatica Ball
  • The Young Offenders
  • Looper
  • Atlas
  • The Rookie
  • Rebus
  • Civil War
  • South Park
  • Furiosa: A Mad Max Saga
  • Knox Goes Away
  • WWE NXT
  • Star Trek: Discovery
  • Survivor
  • The Fall Guy
  • 5lbs of Pressure
  • South Park: The End of Obesity
  • The Daily Show
  • Blue Bloods

Recent Comments

  • Rafi85: Hi thx for the 14th season. Is it possible to reupload some episodes plz they were removed. These ar...
  • KubrickFan:

    Any possibility of a fresh link for this?

  • GubeShitemon: This is a different movie to the artwork version. Not the Dylan McDermott film but the Ben Affleck f...
  • Wrapt: Hahahaha yeah right make a liar out of me but I was referring to comments made about a movie or an e...
  • Wrapt: Comments are not always appearing in the Recent Comments list after submitting a comment any reason ...
  • waanaabe:

    warning: speaks German Swedish and French for those without English subs...

  • spiker1961:

    The audio on this is a commentary track, not the actual film audio.

  • spiker1961:

    The audio on this is a commentary track, not the film audio.

  • DuranDuran: The MS PAT show - - Does anyone have BOTH the MS PAT show (SEASON 4) & (SEASON 3) that just cam...
  • newuser:

    need english subtitles

  • Demonz:

    WTH is this

    NO season info and parts 1-13

  • meyat74:

    please add if possible new episodes 5-6

  • DuranDuran: THE MS PAT show = Does anyone have BOTH the MS PAT show (SEASON 3)-and- (SEASON 4) that just came ou...
  • big_ralphie: Just sitting down to watch and, yes there are subtitles...in ITALIAN ONLY. ENGLISH subs might be hel...
  • Geependo:

    All links are dead

Archives