Sign Up   |   Sign In  

Announcements

Want to support us?
Buy a RapidRAR account from our resellers:
Buy or renew a NitroFlare account via THIS LINK

04/17

2017

6

Comments

The Leftovers S03E01 WEBRip x264-RARBG
[RR/NF/UL/OL/UR/CU]
Size: 559MB mp4 H264 (HIGH) (AVC1) / AAC (LC) (MP4A) 720x400

The Leftovers
Click on the image to see full size
[RR/NF/UL/OL/UR/CU] The Leftovers S03E01 WEBRip x264-RARBG (559MB) - Snapshot 1[RR/NF/UL/OL/UR/CU] The Leftovers S03E01 WEBRip x264-RARBG (559MB) - Snapshot 2
File Information
[URL]http://www.imdb.com/title/tt2699128/[/URL]
[screenshots]
[URL=http://imagecurl.com/viewer.php?file=97086312187417159639.png][IMG]http://imagecurl.com/images/97086312187417159639_thumb.png[/IMG][/URL]
[URL=http://imagecurl.com/viewer.php?file=37584555933455316760.png][IMG]http://imagecurl.com/images/37584555933455316760_thumb.png[/IMG][/URL]
[URL=http://imagecurl.com/viewer.php?file=14608696437722550512.png][IMG]http://imagecurl.com/images/14608696437722550512_thumb.png[/IMG][/URL]
[URL=http://imagecurl.com/viewer.php?file=22098695114790418087.png][IMG]http://imagecurl.com/images/22098695114790418087_thumb.png[/IMG][/URL]
[URL=http://imagecurl.com/viewer.php?file=10835902232524549934.png][IMG]http://imagecurl.com/images/10835902232524549934_thumb.png[/IMG][/URL]

[/screenshots]


[mediainfo]
Video
ID                                       : 1
Format                                   : AVC
Format/Info                              : Advanced Video Codec
Format profile                           : [email protected]
Format settings, CABAC                   : Yes
Format settings, ReFrames                : 5 frames
Codec ID                                 : avc1
Codec ID/Info                            : Advanced Video Coding
Duration                                 : 1h 3mn
Bit rate                                 : 1 100 Kbps
Width                                    : 720 pixels
Height                                   : 400 pixels
Display aspect ratio                     : 16:9
Frame rate mode                          : Constant
Frame rate                               : 23.976 (24000/1001) fps
Color space                              : YUV
Chroma subsampling                       : 4:2:0
Bit depth                                : 8 bits
Scan type                                : Progressive
Bits/(Pixel*Frame)                       : 0.159
Stream size                              : 499 MiB (89%)
Title                                    : RARBG.COM - The.Leftovers.S03E01.WEBRip.x264-RARBG
Writing library                          : x264 core 148 r2597M e86f3a1
 Encoding settings                        : cabac=1 / ref=5 / deblock=1:-1:-1 / analyse=0x3:0x113 / me=umh / subme=9 / psy=1 / psy_rd=1.00:0.15 / mixed_ref=1 / me_range=16 / chroma_me=1 / trellis=2 / 8x8dct=1 / cqm=0 / deadz / fast pskip=1 / chroma_qp_offset=-3 / threads=12 / lookahead_threads=1 / sliced_threads=0 / nr=0 / decimate=1 / interlaced=0 / bluray_compat=0 / c / bframes=3 / b_pyramid=2 / b_adapt=2 / b_bias=0 / direct=3 / weightb=1 / open_gop=0 / weightp=2 / keyint=250 / keyint_min=23 / scenecut=40 / intra_refresh=0 / rc_lookahead=50 / rc=abr / mbtree=1 / bitrate=1100 / ratetol=1.0 / qcomp=0.60 / qpmin=0 / qpmax=69 / qpstep=4 / ip_ratio=1.40 / aq=1:1.00
Language                                 : English
Encoded date                             : UTC 2017-04-17 16:41:23
Tagged date                              : UTC 2017-04-17 16:41:23

Audio
ID                                       : 2
Format                                   : AAC
Format/Info                              : Advanced Audio Codec
Format profile                           : LC
Codec ID                                 : 40
Duration                                 : 1h 3mn
Duration_LastFrame                       : -11ms
Bit rate mode                            : Constant
Bit rate                                 : 128 Kbps
Channel(s)                               : 2 channels
Channel positions                        : Front: L R
Sampling rate                            : 48.0 KHz
Frame rate                               : 46.875 fps (1024 spf)
Compression mode                         : Lossy
Stream size                              : 58.1 MiB (10%)
Title                                    : RARBG.COM - The.Leftovers.S03E01.WEBRip.x264-RARBG
Language                                 : English
Default                                  : Yes
Alternate group                          : 1
Encoded date                             : UTC 2017-04-17 16:41:23
Tagged date                              : UTC 2017-04-17 16:41:23



[/mediainfo]
Download
File Container: MP4
Video/Audio Codec: H264 (HIGH) (AVC1) AAC (LC) (MP4A)
Video Resolution: 720x400
 
 
 
 
 
 

Show us some love

6 Responses to "[RR/NF/UL/OL/UR/CU] The Leftovers S03E01 WEBRip x264-RARBG (559MB)"
05/01/17
16:13:55
Admin

RapidRAR re-uploaded with new RAR file(s) (users who couldn't download some parts need to download all parts again).

05/03/17
09:10:12
Admin

RapidRAR re-uploaded with new RAR file(s) (users who couldn't download some parts need to download all parts again).

05/06/17
19:10:10
Admin

RapidRAR re-uploaded with new RAR file(s) (users who couldn't download some parts need to download all parts again).

05/09/17
01:20:36
Admin

RapidRAR re-uploaded with new RAR file(s) (users who couldn't download some parts need to download all parts again).

05/09/17
22:22:14
Admin

RapidRAR re-uploaded with new RAR file(s) (users who couldn't download some parts need to download all parts again).

05/15/17
08:50:08
Admin

RapidRAR re-uploaded with new RAR file(s) (users who couldn't download some parts need to download all parts again).

Leave a Comment

  • (never displayed)
  •  
        Members don't see captchas. Sign Up / Sign In
  • Notify me via email when someone responds.
  • Subscribe my Feeds
  • Facebook

Latest Episodes

Popular Movies and TV Shows

  • Silicon Valley
  • The Leftovers
  • Veep
  • Caligula's Spawn
  • Naked Ambition: An R Rated Look at an X Rated Industry
  • Fallo!
  • American Gods
  • Genius
  • The White Princess
  • John Wick: Chapter 2
  • Are All Men Pedophiles?
  • MindGamers
  • Grantchester
  • The Durrells
  • The Handmaid's Tale
  • Pork Pie
  • The King's Case Note
  • A Cure for Wellness
  • Doctor Who
  • 12 Monkeys
  • Bloodline
  • Unforgiven
  • War Machine
  • The Northlander
  • Jamestown

Recent Comments

  • pickle:

    Why don't you use UL for FGT TV releases?

  • basiadora: The Openload link leads to mp4 watchable file, not to the mkv
  • basiadora:

    Thank you very much :)

  • thaone:

    Thanks

  • yana:

    ...no S2E1 yet? this sudden upload of S1 could leave one to think S2 came out?

  • CharMir:

    Any chance of a re-up, need a paid account for rapidrar.

  • rollo: still waiting for a 720p hevc x265 from The.Handmaids.Tale.S01E07.720p.WEBRip.x264-MOROSE please; li...
  • Z:

    Why don't you just use openload ^

  • ramirez_:

    can you re up links please

  • MahBoff:

    Could this please be uploaded to RapidRar?