Sign Up   |   Sign In  

Announcements

Want to support us?
Buy a RapidRAR account from our resellers:
Buy or renew a NitroFlare account via THIS LINK

04/20

2017

1

Comments

The Magicians S02E13 1080p WEB-DL DD5 1 H264-RARBG
[RR/NF/UL/UR]
Size: 1.8GB mkv H264 (HIGH) / AC3  HD  1920x1080

The Magicians
Click on the image to see full size
[RR/NF/UL/UR] The Magicians S02E13 1080p WEB-DL DD5 1 H264-RARBG (1.8GB) - Snapshot 1
File Information
[URL=http://imagecurl.com/viewer.php?file=19820747982492105876.png][IMG]http://imagecurl.com/images/19820747982492105876_thumb.png[/IMG][/URL]
[URL=http://imagecurl.com/viewer.php?file=71186579594883636295.png][IMG]http://imagecurl.com/images/71186579594883636295_thumb.png[/IMG][/URL]
[URL=http://imagecurl.com/viewer.php?file=53833318045541245457.png][IMG]http://imagecurl.com/images/53833318045541245457_thumb.png[/IMG][/URL]
[URL=http://imagecurl.com/viewer.php?file=59534953487377902626.png][IMG]http://imagecurl.com/images/59534953487377902626_thumb.png[/IMG][/URL]
[URL=http://imagecurl.com/viewer.php?file=92353465666633577999.png][IMG]http://imagecurl.com/images/92353465666633577999_thumb.png[/IMG][/URL]
[URL=http://imagecurl.com/viewer.php?file=78172354423329175343.png][IMG]http://imagecurl.com/images/78172354423329175343_thumb.png[/IMG][/URL]



[mediainfo]
Video
ID                                       : 1
Format                                   : AVC
Format/Info                              : Advanced Video Codec
Format profile                           : [email protected]
Format settings, CABAC                   : Yes
Format settings, ReFrames                : 4 frames
Codec ID                                 : V_MPEG4/ISO/AVC
Duration                                 : 46mn 21s
Bit rate                                 : 5 059 Kbps
Width                                    : 1 920 pixels
Height                                   : 1 080 pixels
Display aspect ratio                     : 16:9
Frame rate mode                          : Constant
Frame rate                               : 23.976 (24000/1001) fps
Color space                              : YUV
Chroma subsampling                       : 4:2:0
Bit depth                                : 8 bits
Scan type                                : Progressive
Bits/(Pixel*Frame)                       : 0.102
Stream size                              : 1.64 GiB (91%)
Title                                    : The.Magicians.S02E13.1080p.WEB-DL.DD5.1.H264-RARBG
Language                                 : English
Default                                  : Yes
Forced                                   : No
Color range                              : Limited
Color primaries                          : BT.709
Transfer characteristics                 : BT.709
Matrix coefficients                      : BT.709

Audio
ID                                       : 2
Format                                   : AC-3
Format/Info                              : Audio Coding 3
Mode extension                           : CM (complete main)
Format settings, Endianness              : Big
Codec ID                                 : A_AC3
Duration                                 : 46mn 21s
Bit rate mode                            : Constant
Bit rate                                 : 384 Kbps
Channel(s)                               : 6 channels
Channel positions                        : Front: L C R, Side: L R, LFE
Sampling rate                            : 48.0 KHz
Frame rate                               : 31.250 fps (1536 spf)
Compression mode                         : Lossy
Stream size                              : 127 MiB (7%)
Title                                    : The.Magicians.S02E13.1080p.WEB-DL.DD5.1.H264-RARBG
Language                                 : English
Default                                  : Yes
Forced                                   : No

Text #1
ID                                       : 3
Format                                   : UTF-8
Codec ID                                 : S_TEXT/UTF8
Codec ID/Info                            : UTF-8 Plain Text
Language                                 : English
Default                                  : Yes
Forced                                   : No

Text #2
ID                                       : 4
Format                                   : UTF-8
Codec ID                                 : S_TEXT/UTF8
Codec ID/Info                            : UTF-8 Plain Text
Title                                    : SDH
Language                                 : English
Default                                  : No
Forced                                   : No



[/mediainfo]
Download
File Container: MKV
Video/Audio Codec: H264 (HIGH) AC3
Video Resolution: 1920x1080
 
 
 
 

Show us some love

1 Response to "[RR/NF/UL/UR] The Magicians S02E13 1080p WEB-DL DD5 1 H264-RARBG (1.8GB)"
06/03/17
17:40:12
Admin

RapidRAR re-uploaded with new RAR file(s) (users who couldn't download some parts need to download all parts again).

Leave a Comment

  • (never displayed)
  •  
        Members don't see captchas. Sign Up / Sign In
  • Notify me via email when someone responds.
  • Subscribe my Feeds
  • Facebook

Latest Episodes

Popular Movies and TV Shows

  • Shooter
  • Manhunt: Unabomber
  • The Land Unknown
  • Game of Thrones
  • All Eyez on Me
  • Tribal Justice
  • JoJo no kimyô-na bôken
  • Still the King
  • Time After Time
  • Batman and Harley Quinn
  • Megan Leavey
  • In the Name of the Father
  • Animal Kingdom
  • Twirlywoos
  • America's Got Talent
  • Starship Troopers: Traitor of Mars
  • Koe no katachi
  • Bedazzled
  • Wrecked
  • Somewhere Between
  • Preacher
  • Sisters
  • Guardians of the Galaxy Vol. 2
  • The Dark Tower
  • The Last Ship

Recent Comments