Sign Up   |   Sign In  

Announcements

Want to support us?
Buy a RapidRAR account from our resellers:
Buy or renew a NitroFlare account via THIS LINK

04/20

2017

No

Comments

The Magicians S02E13 720p WEB-DL DD5 1 H264-RARBG
[RR/NF/UL/UR]
Size: 1.4GB mkv H264 (HIGH) / AC3  HD  1280x720

The Magicians
Click on the image to see full size
[RR/NF/UL/UR] The Magicians S02E13 720p WEB-DL DD5 1 H264-RARBG (1.4GB) - Snapshot 1
File Information
[URL=http://imagecurl.com/viewer.php?file=60971788066746424103.png][IMG]http://imagecurl.com/images/60971788066746424103_thumb.png[/IMG][/URL]
[URL=http://imagecurl.com/viewer.php?file=13470359941368170232.png][IMG]http://imagecurl.com/images/13470359941368170232_thumb.png[/IMG][/URL]
[URL=http://imagecurl.com/viewer.php?file=33822242363786954539.png][IMG]http://imagecurl.com/images/33822242363786954539_thumb.png[/IMG][/URL]
[URL=http://imagecurl.com/viewer.php?file=34603628974157112886.png][IMG]http://imagecurl.com/images/34603628974157112886_thumb.png[/IMG][/URL]
[URL=http://imagecurl.com/viewer.php?file=44231805912050493074.png][IMG]http://imagecurl.com/images/44231805912050493074_thumb.png[/IMG][/URL]
[URL=http://imagecurl.com/viewer.php?file=63010978601540427023.png][IMG]http://imagecurl.com/images/63010978601540427023_thumb.png[/IMG][/URL]



[mediainfo]
Video
ID                                       : 1
Format                                   : AVC
Format/Info                              : Advanced Video Codec
Format profile                           : High@L3.1
Format settings, CABAC                   : No
Format settings, ReFrames                : 2 frames
Codec ID                                 : V_MPEG4/ISO/AVC
Duration                                 : 46mn 21s
Bit rate                                 : 3 954 Kbps
Width                                    : 1 280 pixels
Height                                   : 720 pixels
Display aspect ratio                     : 16:9
Frame rate mode                          : Constant
Frame rate                               : 23.976 (24000/1001) fps
Color space                              : YUV
Chroma subsampling                       : 4:2:0
Bit depth                                : 8 bits
Scan type                                : Progressive
Bits/(Pixel*Frame)                       : 0.179
Stream size                              : 1.28 GiB (89%)
Title                                    : The.Magicians.S02E13.720p.WEB-DL.DD5.1.H264-RARBG
Language                                 : English
Default                                  : Yes
Forced                                   : No
Color range                              : Limited
Color primaries                          : BT.709
Transfer characteristics                 : BT.709
Matrix coefficients                      : BT.709

Audio
ID                                       : 2
Format                                   : AC-3
Format/Info                              : Audio Coding 3
Mode extension                           : CM (complete main)
Format settings, Endianness              : Big
Codec ID                                 : A_AC3
Duration                                 : 46mn 21s
Bit rate mode                            : Constant
Bit rate                                 : 384 Kbps
Channel(s)                               : 6 channels
Channel positions                        : Front: L C R, Side: L R, LFE
Sampling rate                            : 48.0 KHz
Frame rate                               : 31.250 fps (1536 spf)
Compression mode                         : Lossy
Stream size                              : 127 MiB (9%)
Title                                    : The.Magicians.S02E13.720p.WEB-DL.DD5.1.H264-RARBG
Language                                 : English
Default                                  : Yes
Forced                                   : No

Text #1
ID                                       : 3
Format                                   : UTF-8
Codec ID                                 : S_TEXT/UTF8
Codec ID/Info                            : UTF-8 Plain Text
Language                                 : English
Default                                  : Yes
Forced                                   : No

Text #2
ID                                       : 4
Format                                   : UTF-8
Codec ID                                 : S_TEXT/UTF8
Codec ID/Info                            : UTF-8 Plain Text
Title                                    : SDH
Language                                 : English
Default                                  : No
Forced                                   : No



[/mediainfo]
Download
File Container: MKV
Video/Audio Codec: H264 (HIGH) AC3
Video Resolution: 1280x720
 
 
 
 

Show us some love

Leave a Comment

  • (never displayed)
  •  
        Members don't see captchas. Sign Up / Sign In
  • Notify me via email when someone responds.
  • Subscribe my Feeds
  • Facebook

Latest Episodes

Popular Movies and TV Shows

  • Fear the Walking Dead
  • Teen Wolf
  • The Last Ship
  • The Child in Time
  • The Wizard of Lies
  • Belle de jour
  • The Deuce
  • Ray Donovan
  • Ballers
  • WWE: No Mercy
  • Cult of Chucky
  • Open Road
  • The History of Sex
  • Philip K. Dick's Electric Dreams
  • The Vietnam War
  • Baby Driver
  • Transformers: The Last Knight
  • Sr. Pig
  • Outlander
  • Halt and Catch Fire
  • Five Came Back
  • Wolf Mother
  • Joe Bullet
  • Killing Gunther
  • The Orville

Recent Comments