Sign Up   |   Sign In  

Announcements

Want to support us?
Buy a RapidRAR account from our resellers:
Buy or renew a NitroFlare account via THIS LINK

04/20

2017

1

Comments

The Magicians US S02E13 WEBRip x264-RARBG
[RR/NF/UL/OL/OLw/UR]
Size: 405MB mp4 H264 (HIGH) (AVC1) / AAC (LC) (MP4A) 720x400

The Magicians
Click on the image to see full size
[RR/NF/UL/OL/OLw/UR] The Magicians US S02E13 WEBRip x264-RARBG (405MB) - Snapshot 1[RR/NF/UL/OL/OLw/UR] The Magicians US S02E13 WEBRip x264-RARBG (405MB) - Snapshot 2
File Information
[URL]http://www.imdb.com/title/tt4254242/[/URL]
[screenshots]
[URL=http://imagecurl.com/viewer.php?file=04310591674549401610.png][IMG]http://imagecurl.com/images/04310591674549401610_thumb.png[/IMG][/URL]
[URL=http://imagecurl.com/viewer.php?file=87319526367901894207.png][IMG]http://imagecurl.com/images/87319526367901894207_thumb.png[/IMG][/URL]
[URL=http://imagecurl.com/viewer.php?file=18482178253259111095.png][IMG]http://imagecurl.com/images/18482178253259111095_thumb.png[/IMG][/URL]
[URL=http://imagecurl.com/viewer.php?file=94248559991930219999.png][IMG]http://imagecurl.com/images/94248559991930219999_thumb.png[/IMG][/URL]

[/screenshots]


[mediainfo]
Video
ID                                       : 1
Format                                   : AVC
Format/Info                              : Advanced Video Codec
Format profile                           : [email protected]
Format settings, CABAC                   : Yes
Format settings, ReFrames                : 5 frames
Codec ID                                 : avc1
Codec ID/Info                            : Advanced Video Coding
Duration                                 : 46mn 21s
Bit rate                                 : 1 100 Kbps
Width                                    : 720 pixels
Height                                   : 400 pixels
Display aspect ratio                     : 16:9
Frame rate mode                          : Constant
Frame rate                               : 23.976 (24000/1001) fps
Color space                              : YUV
Chroma subsampling                       : 4:2:0
Bit depth                                : 8 bits
Scan type                                : Progressive
Bits/(Pixel*Frame)                       : 0.159
Stream size                              : 361 MiB (89%)
Title                                    : RARBG.COM - The.Magicians.US.S02E13.WEBRip.x264-RARBG
Writing library                          : x264 core 148 r2597M e86f3a1
 Encoding settings                        : cabac=1 / ref=5 / deblock=1:-1:-1 / analyse=0x3:0x113 / me=umh / subme=9 / psy=1 / psy_rd=1.00:0.15 / mixed_ref=1 / me_range=16 / chroma_me=1 / trellis=2 / 8x8dct=1 / cqm=0 / deadz / fast pskip=1 / chroma_qp_offset=-3 / threads=12 / lookahead_threads=1 / sliced_threads=0 / nr=0 / decimate=1 / interlaced=0 / bluray_compat=0 / c / bframes=3 / b_pyramid=2 / b_adapt=2 / b_bias=0 / direct=3 / weightb=1 / open_gop=0 / weightp=2 / keyint=250 / keyint_min=23 / scenecut=40 / intra_refresh=0 / rc_lookahead=50 / rc=abr / mbtree=1 / bitrate=1100 / ratetol=1.0 / qcomp=0.60 / qpmin=0 / qpmax=69 / qpstep=4 / ip_ratio=1.40 / aq=1:1.00
Encoded date                             : UTC 2017-04-20 12:52:10
Tagged date                              : UTC 2017-04-20 12:52:10

Audio
ID                                       : 2
Format                                   : AAC
Format/Info                              : Advanced Audio Codec
Format profile                           : LC
Codec ID                                 : 40
Duration                                 : 46mn 21s
Duration_LastFrame                       : -11ms
Bit rate mode                            : Constant
Bit rate                                 : 128 Kbps
Channel(s)                               : 2 channels
Channel positions                        : Front: L R
Sampling rate                            : 48.0 KHz
Frame rate                               : 46.875 fps (1024 spf)
Compression mode                         : Lossy
Stream size                              : 42.4 MiB (10%)
Title                                    : RARBG.COM - The.Magicians.US.S02E13.WEBRip.x264-RARBG
Language                                 : English
Default                                  : Yes
Alternate group                          : 1
Encoded date                             : UTC 2017-04-20 12:52:10
Tagged date                              : UTC 2017-04-20 12:52:10



[/mediainfo]
Download
File Container: MP4
Video/Audio Codec: H264 (HIGH) (AVC1) AAC (LC) (MP4A)
Video Resolution: 720x400
 
 
 
 
 
Watch Online [MP4]

Show us some love

1 Response to "[RR/NF/UL/OL/OLw/UR] The Magicians US S02E13 WEBRip x264-RARBG (405MB)"
06/16/17
01:10:15
Admin

RapidRAR re-uploaded with new RAR file(s) (users who couldn't download some parts need to download all parts again).

Leave a Comment

  • (never displayed)
  •  
        Members don't see captchas. Sign Up / Sign In
  • Notify me via email when someone responds.
  • Subscribe my Feeds
  • Facebook

Latest Episodes

Popular Movies and TV Shows

  • Shooter
  • Animal Kingdom
  • Megan Leavey
  • Wrecked
  • All Eyez on Me
  • Pure Country 2: The Gift
  • Somewhere Between
  • Celebrity Big Brother
  • Game of Thrones
  • Starship Troopers: Traitor of Mars
  • Barclays English Premier League 2004/2005
  • Bedazzled
  • Preacher
  • Trust Me
  • The Strain
  • Guardians of the Galaxy Vol. 2
  • Erik the Viking
  • The Babe
  • Midnight, Texas
  • People of Earth
  • Teen Wolf
  • Lowriders
  • The Immortal Life of Henrietta Lacks
  • Baywatch
  • The Last Ship

Recent Comments

  • Beau:

    Any chance of getting a Chesapeake Shores s02e03 480p x264 rmteam release?

  • Invitado_500K: ¡Muchas gracias por la versión GAME OF THRONES S07E06 PROPER HDTV XVID-RMX de www.rmz.com en www.u...
  • catawaul:

    thanks muchly

  • Belligerent: @RussAre you still here? Go someplace else where they don't include subtitles if that is what you pr...
  • lololololol:

    Thank you so much for this great share. The subtitles are very wellcome.

  • kevin: @Russ Are you for real? Go wherever you want if you're too lazy to check what the files really are.
  • Russ: Are you kidding me on this DL? Its 10 files and you have it split to 20+.I will go to DirtyWarez For...
  • hey_Admin: ALL links dead for ' Escape from Zahrain 1962 720p BluRay H264 AAC-RARBG ' can we please get a re-up...
  • any.chance: is there a possibility of a x265 720p or even a 480p encode of ' Erik the Viking 1989 720p BluRay ' ...
  • Bombastic: THE STRAIN S04E06 TAINTED LOVE 1080P WEB-DL x265 MIDNIGHT TEXAS S01E05 1080P WEB x265 PREACHER S02E1...