Sign Up   |   Sign In  
Accidental TexanMy Little NightmareMR-9: Do or DieInterior Design MastersThe SimpsonsThe Dust BowlShogunMonkey ManArthur the KingNCISThe NeighborhoodDowntown OwlNCIS: Hawai'iAftermathBob Hearts AbisholaRed EyeI'm Reed FishOne LifeReal Time with Bill MaherTrackerThe Bold and the BeautifulTime AddictsDune: Part TwoKung Fu Panda 4The Sympathizer

Announcements

02/28

2024

No

Comments

The New Look S01E05 Give Your Heart and Soul to Me REPACK 720p ATVP WEB-DL DDP5 1 Atmos H 264-FLUX
[RR/NF/CU]
Size: 1.3GB mkv H264 (HIGH) / EAC3  HD  1280x720

The New Look
File Information
[img]http://lookpic.com/cdn/i2/t/0227202422370792-1.jpg[/img]
[img]http://lookpic.com/cdn/i2/t/0227202422370792-2.jpg[/img]
[img]http://lookpic.com/cdn/i2/t/0227202422370792-3.jpg[/img]

General
Unique ID                                : 294619169225907750690903203582954822272 (0xDDA596887F067E5CAC91FD6E8929DA80)
Complete name                            : The.New.Look.S01E05.Give.Your.Heart.and.Soul.to.Me.REPACK.720p.ATVP.WEB-DL.DDP5.1.Atmos.H.264-FLUX.mkv
Format                                   : Matroska
Format version                           : Version 4
File size                                : 1.31 GiB
Duration                                 : 50 min 56 s
Overall bit rate                         : 3 681 kb/s
Frame rate                               : 23.976 FPS
Writing application                      : mkvmerge v81.0 ('Milliontown') 64-bit
Writing library                          : libebml v1.4.4 + libmatroska v1.7.1

Video
ID                                       : 1
Format                                   : AVC
Format/Info                              : Advanced Video Codec
Format profile                           : High@L3.1
Format settings                          : CABAC / 5 Ref Frames
Format settings, CABAC                   : Yes
Format settings, Reference frames        : 5 frames
Codec ID                                 : V_MPEG4/ISO/AVC
Duration                                 : 50 min 56 s
Bit rate                                 : 2 905 kb/s
Width                                    : 1 280 pixels
Height                                   : 720 pixels
Display aspect ratio                     : 16:9
Frame rate mode                          : Constant
Frame rate                               : 23.976 (24000/1001) FPS
Color space                              : YUV
Chroma subsampling                       : 4:2:0
Bit depth                                : 8 bits
Scan type                                : Progressive
Bits/(Pixel*Frame)                       : 0.131
Stream size                              : 1.03 GiB (79%)
Language                                 : English
Default                                  : Yes
Forced                                   : No
Color range                              : Limited
Color primaries                          : BT.709
Transfer characteristics                 : BT.709
Matrix coefficients                      : BT.709

Audio
ID                                       : 2
Format                                   : E-AC-3 JOC
Format/Info                              : Enhanced AC-3 with Joint Object Coding
Commercial name                          : Dolby Digital Plus with Dolby Atmos
Codec ID                                 : A_EAC3
Duration                                 : 50 min 56 s
Bit rate mode                            : Constant
Bit rate                                 : 768 kb/s
Channel(s)                               : 6 channels
Channel layout                           : L R C LFE Ls Rs
Sampling rate                            : 48.0 kHz
Frame rate                               : 31.250 FPS (1536 SPF)
Compression mode                         : Lossy
Stream size                              : 280 MiB (21%)
Language                                 : English
Service kind                             : Complete Main
Default                                  : Yes
Forced                                   : No
Complexity index                         : 16
Number of dynamic objects                : 15
Bed channel count                        : 1 channel
Bed channel configuration                : LFE

Text #1
ID                                       : 3
Format                                   : UTF-8
Codec ID                                 : S_TEXT/UTF8
Codec ID/Info                            : UTF-8 Plain Text
Duration                                 : 28 min 39 s
Bit rate                                 : 3 b/s
Frame rate                               : 0.018 FPS
Count of elements                        : 31
Stream size                              : 787 Bytes (0%)
Title                                    : Forced
Language                                 : English
Default                                  : Yes
Forced                                   : Yes

Text #2
ID                                       : 4
Format                                   : UTF-8
Codec ID                                 : S_TEXT/UTF8
Codec ID/Info                            : UTF-8 Plain Text
Duration                                 : 48 min 30 s
Bit rate                                 : 57 b/s
Frame rate                               : 0.209 FPS
Count of elements                        : 609
Stream size                              : 20.4 KiB (0%)
Language                                 : English
Default                                  : No
Forced                                   : No

Text #3
ID                                       : 5
Format                                   : UTF-8
Codec ID                                 : S_TEXT/UTF8
Codec ID/Info                            : UTF-8 Plain Text
Duration                                 : 49 min 18 s
Bit rate                                 : 67 b/s
Frame rate                               : 0.238 FPS
Count of elements                        : 704
Stream size                              : 24.3 KiB (0%)
Title                                    : SDH
Language                                 : English
Default                                  : No
Forced                                   : No

Text #4
ID                                       : 6
Format                                   : UTF-8
Codec ID                                 : S_TEXT/UTF8
Codec ID/Info                            : UTF-8 Plain Text
Duration                                 : 50 min 42 s
Bit rate                                 : 88 b/s
Frame rate                               : 0.199 FPS
Count of elements                        : 605
Stream size                              : 32.8 KiB (0%)
Language                                 : Arabic
Default                                  : No
Forced                                   : No

Text #5
ID                                       : 7
Format                                   : UTF-8
Codec ID                                 : S_TEXT/UTF8
Codec ID/Info                            : UTF-8 Plain Text
Duration                                 : 50 min 42 s
Bit rate                                 : 79 b/s
Frame rate                               : 0.170 FPS
Count of elements                        : 518
Stream size                              : 29.6 KiB (0%)
Language                                 : Bulgarian
Default                                  : No
Forced                                   : No

Text #6
ID                                       : 8
Format                                   : UTF-8
Codec ID                                 : S_TEXT/UTF8
Codec ID/Info                            : UTF-8 Plain Text
Duration                                 : 50 min 42 s
Bit rate                                 : 50 b/s
Frame rate                               : 0.203 FPS
Count of elements                        : 617
Stream size                              : 18.9 KiB (0%)
Title                                    : Simplified
Language                                 : Chinese (Simplified)
Default                                  : No
Forced                                   : No

Text #7
ID                                       : 9
Format                                   : UTF-8
Codec ID                                 : S_TEXT/UTF8
Codec ID/Info                            : UTF-8 Plain Text
Duration                                 : 50 min 42 s
Bit rate                                 : 48 b/s
Frame rate                               : 0.203 FPS
Count of elements                        : 618
Stream size                              : 17.8 KiB (0%)
Title                                    : Traditional
Language                                 : Chinese (Traditional)
Default                                  : No
Forced                                   : No

Text #8
ID                                       : 10
Format                                   : UTF-8
Codec ID                                 : S_TEXT/UTF8
Codec ID/Info                            : UTF-8 Plain Text
Duration                                 : 50 min 42 s
Bit rate                                 : 51 b/s
Frame rate                               : 0.193 FPS
Count of elements                        : 587
Stream size                              : 19.2 KiB (0%)
Language                                 : Czech
Default                                  : No
Forced                                   : No

Text #9
ID                                       : 11
Format                                   : UTF-8
Codec ID                                 : S_TEXT/UTF8
Codec ID/Info                            : UTF-8 Plain Text
Duration                                 : 50 min 42 s
Bit rate                                 : 55 b/s
Frame rate                               : 0.194 FPS
Count of elements                        : 589
Stream size                              : 20.7 KiB (0%)
Language                                 : Danish
Default                                  : No
Forced                                   : No

Text #10
ID                                       : 12
Format                                   : UTF-8
Codec ID                                 : S_TEXT/UTF8
Codec ID/Info                            : UTF-8 Plain Text
Duration                                 : 50 min 35 s
Bit rate                                 : 53 b/s
Frame rate                               : 0.198 FPS
Count of elements                        : 601
Stream size                              : 19.9 KiB (0%)
Language                                 : German
Default                                  : No
Forced                                   : No

Text #11
ID                                       : 13
Format                                   : UTF-8
Codec ID                                 : S_TEXT/UTF8
Codec ID/Info                            : UTF-8 Plain Text
Duration                                 : 50 min 42 s
Bit rate                                 : 92 b/s
Frame rate                               : 0.196 FPS
Count of elements                        : 595
Stream size                              : 34.5 KiB (0%)
Language                                 : Greek
Default                                  : No
Forced                                   : No

Text #12
ID                                       : 14
Format                                   : UTF-8
Codec ID                                 : S_TEXT/UTF8
Codec ID/Info                            : UTF-8 Plain Text
Duration                                 : 50 min 42 s
Bit rate                                 : 55 b/s
Frame rate                               : 0.202 FPS
Count of elements                        : 614
Stream size                              : 20.4 KiB (0%)
Title                                    : Latin American
Language                                 : Spanish (Latin America)
Default                                  : No
Forced                                   : No

Text #13
ID                                       : 15
Format                                   : UTF-8
Codec ID                                 : S_TEXT/UTF8
Codec ID/Info                            : UTF-8 Plain Text
Duration                                 : 50 min 42 s
Bit rate                                 : 57 b/s
Frame rate                               : 0.203 FPS
Count of elements                        : 617
Stream size                              : 21.3 KiB (0%)
Language                                 : Spanish (ES)
Default                                  : No
Forced                                   : No

Text #14
ID                                       : 16
Format                                   : UTF-8
Codec ID                                 : S_TEXT/UTF8
Codec ID/Info                            : UTF-8 Plain Text
Duration                                 : 50 min 42 s
Bit rate                                 : 52 b/s
Frame rate                               : 0.196 FPS
Count of elements                        : 597
Stream size                              : 19.4 KiB (0%)
Language                                 : Estonian
Default                                  : No
Forced                                   : No

Text #15
ID                                       : 17
Format                                   : UTF-8
Codec ID                                 : S_TEXT/UTF8
Codec ID/Info                            : UTF-8 Plain Text
Duration                                 : 50 min 42 s
Bit rate                                 : 49 b/s
Frame rate                               : 0.178 FPS
Count of elements                        : 543
Stream size                              : 18.4 KiB (0%)
Language                                 : Finnish
Default                                  : No
Forced                                   : No

Text #16
ID                                       : 18
Format                                   : UTF-8
Codec ID                                 : S_TEXT/UTF8
Codec ID/Info                            : UTF-8 Plain Text
Duration                                 : 50 min 37 s
Bit rate                                 : 54 b/s
Frame rate                               : 0.227 FPS
Count of elements                        : 690
Stream size                              : 20.3 KiB (0%)
Title                                    : Canadian
Language                                 : French (CA)
Default                                  : No
Forced                                   : No

Text #17
ID                                       : 19
Format                                   : UTF-8
Codec ID                                 : S_TEXT/UTF8
Codec ID/Info                            : UTF-8 Plain Text
Duration                                 : 50 min 37 s
Bit rate                                 : 54 b/s
Frame rate                               : 0.227 FPS
Count of elements                        : 689
Stream size                              : 20.3 KiB (0%)
Language                                 : French (FR)
Default                                  : No
Forced                                   : No

Text #18
ID                                       : 20
Format                                   : UTF-8
Codec ID                                 : S_TEXT/UTF8
Codec ID/Info                            : UTF-8 Plain Text
Duration                                 : 50 min 42 s
Bit rate                                 : 78 b/s
Frame rate                               : 0.203 FPS
Count of elements                        : 617
Stream size                              : 29.3 KiB (0%)
Language                                 : Hebrew
Default                                  : No
Forced                                   : No

Text #19
ID                                       : 21
Format                                   : UTF-8
Codec ID                                 : S_TEXT/UTF8
Codec ID/Info                            : UTF-8 Plain Text
Duration                                 : 50 min 42 s
Bit rate                                 : 149 b/s
Frame rate                               : 0.203 FPS
Count of elements                        : 618
Stream size                              : 55.6 KiB (0%)
Language                                 : Hindi
Default                                  : No
Forced                                   : No

Text #20
ID                                       : 22
Format                                   : UTF-8
Codec ID                                 : S_TEXT/UTF8
Codec ID/Info                            : UTF-8 Plain Text
Duration                                 : 50 min 42 s
Bit rate                                 : 53 b/s
Frame rate                               : 0.198 FPS
Count of elements                        : 602
Stream size                              : 19.9 KiB (0%)
Language                                 : Hungarian
Default                                  : No
Forced                                   : No

Text #21
ID                                       : 23
Format                                   : UTF-8
Codec ID                                 : S_TEXT/UTF8
Codec ID/Info                            : UTF-8 Plain Text
Duration                                 : 50 min 42 s
Bit rate                                 : 59 b/s
Frame rate                               : 0.202 FPS
Count of elements                        : 615
Stream size                              : 22.1 KiB (0%)
Language                                 : Indonesian
Default                                  : No
Forced                                   : No

Text #22
ID                                       : 24
Format                                   : UTF-8
Codec ID                                 : S_TEXT/UTF8
Codec ID/Info                            : UTF-8 Plain Text
Duration                                 : 50 min 32 s
Bit rate                                 : 53 b/s
Frame rate                               : 0.202 FPS
Count of elements                        : 612
Stream size                              : 19.7 KiB (0%)
Language                                 : Italian
Default                                  : No
Forced                                   : No

Text #23
ID                                       : 25
Format                                   : UTF-8
Codec ID                                 : S_TEXT/UTF8
Codec ID/Info                            : UTF-8 Plain Text
Duration                                 : 50 min 42 s
Bit rate                                 : 48 b/s
Frame rate                               : 0.189 FPS
Count of elements                        : 574
Stream size                              : 18.0 KiB (0%)
Language                                 : Japanese
Default                                  : No
Forced                                   : No

Text #24
ID                                       : 26
Format                                   : UTF-8
Codec ID                                 : S_TEXT/UTF8
Codec ID/Info                            : UTF-8 Plain Text
Duration                                 : 50 min 42 s
Bit rate                                 : 63 b/s
Frame rate                               : 0.203 FPS
Count of elements                        : 617
Stream size                              : 23.6 KiB (0%)
Language                                 : Korean
Default                                  : No
Forced                                   : No

Text #25
ID                                       : 27
Format                                   : UTF-8
Codec ID                                 : S_TEXT/UTF8
Codec ID/Info                            : UTF-8 Plain Text
Duration                                 : 50 min 42 s
Bit rate                                 : 55 b/s
Frame rate                               : 0.202 FPS
Count of elements                        : 613
Stream size                              : 20.6 KiB (0%)
Language                                 : Lithuanian
Default                                  : No
Forced                                   : No

Text #26
ID                                       : 28
Format                                   : UTF-8
Codec ID                                 : S_TEXT/UTF8
Codec ID/Info                            : UTF-8 Plain Text
Duration                                 : 50 min 42 s
Bit rate                                 : 56 b/s
Frame rate                               : 0.199 FPS
Count of elements                        : 606
Stream size                              : 21.0 KiB (0%)
Language                                 : Latvian
Default                                  : No
Forced                                   : No

Text #27
ID                                       : 29
Format                                   : UTF-8
Codec ID                                 : S_TEXT/UTF8
Codec ID/Info                            : UTF-8 Plain Text
Duration                                 : 50 min 42 s
Bit rate                                 : 55 b/s
Frame rate                               : 0.201 FPS
Count of elements                        : 610
Stream size                              : 20.4 KiB (0%)
Language                                 : Malay
Default                                  : No
Forced                                   : No

Text #28
ID                                       : 30
Format                                   : UTF-8
Codec ID                                 : S_TEXT/UTF8
Codec ID/Info                            : UTF-8 Plain Text
Duration                                 : 50 min 42 s
Bit rate                                 : 48 b/s
Frame rate                               : 0.153 FPS
Count of elements                        : 464
Stream size                              : 18.1 KiB (0%)
Language                                 : Dutch
Default                                  : No
Forced                                   : No

Text #29
ID                                       : 31
Format                                   : UTF-8
Codec ID                                 : S_TEXT/UTF8
Codec ID/Info                            : UTF-8 Plain Text
Duration                                 : 50 min 42 s
Bit rate                                 : 49 b/s
Frame rate                               : 0.175 FPS
Count of elements                        : 532
Stream size                              : 18.4 KiB (0%)
Language                                 : Norwegian
Default                                  : No
Forced                                   : No

Text #30
ID                                       : 32
Format                                   : UTF-8
Codec ID                                 : S_TEXT/UTF8
Codec ID/Info                            : UTF-8 Plain Text
Duration                                 : 50 min 42 s
Bit rate                                 : 50 b/s
Frame rate                               : 0.191 FPS
Count of elements                        : 581
Stream size                              : 18.9 KiB (0%)
Language                                 : Polish
Default                                  : No
Forced                                   : No

Text #31
ID                                       : 33
Format                                   : UTF-8
Codec ID                                 : S_TEXT/UTF8
Codec ID/Info                            : UTF-8 Plain Text
Duration                                 : 50 min 42 s
Bit rate                                 : 54 b/s
Frame rate                               : 0.202 FPS
Count of elements                        : 613
Stream size                              : 20.3 KiB (0%)
Language                                 : Portuguese
Default                                  : No
Forced                                   : No

Text #32
ID                                       : 34
Format                                   : UTF-8
Codec ID                                 : S_TEXT/UTF8
Codec ID/Info                            : UTF-8 Plain Text
Duration                                 : 50 min 42 s
Bit rate                                 : 53 b/s
Frame rate                               : 0.190 FPS
Count of elements                        : 577
Stream size                              : 19.8 KiB (0%)
Title                                    : Brazilian
Language                                 : Portuguese (BR)
Default                                  : No
Forced                                   : No

Text #33
ID                                       : 35
Format                                   : UTF-8
Codec ID                                 : S_TEXT/UTF8
Codec ID/Info                            : UTF-8 Plain Text
Duration                                 : 50 min 42 s
Bit rate                                 : 81 b/s
Frame rate                               : 0.193 FPS
Count of elements                        : 586
Stream size                              : 30.4 KiB (0%)
Language                                 : Russian
Default                                  : No
Forced                                   : No

Text #34
ID                                       : 36
Format                                   : UTF-8
Codec ID                                 : S_TEXT/UTF8
Codec ID/Info                            : UTF-8 Plain Text
Duration                                 : 50 min 42 s
Bit rate                                 : 50 b/s
Frame rate                               : 0.201 FPS
Count of elements                        : 612
Stream size                              : 18.7 KiB (0%)
Language                                 : Slovak
Default                                  : No
Forced                                   : No

Text #35
ID                                       : 37
Format                                   : UTF-8
Codec ID                                 : S_TEXT/UTF8
Codec ID/Info                            : UTF-8 Plain Text
Duration                                 : 50 min 42 s
Bit rate                                 : 45 b/s
Frame rate                               : 0.163 FPS
Count of elements                        : 495
Stream size                              : 16.8 KiB (0%)
Language                                 : Slovenian
Default                                  : No
Forced                                   : No

Text #36
ID                                       : 38
Format                                   : UTF-8
Codec ID                                 : S_TEXT/UTF8
Codec ID/Info                            : UTF-8 Plain Text
Duration                                 : 50 min 42 s
Bit rate                                 : 53 b/s
Frame rate                               : 0.186 FPS
Count of elements                        : 567
Stream size                              : 19.7 KiB (0%)
Language                                 : Swedish
Default                                  : No
Forced                                   : No

Text #37
ID                                       : 39
Format                                   : UTF-8
Codec ID                                 : S_TEXT/UTF8
Codec ID/Info                            : UTF-8 Plain Text
Duration                                 : 50 min 42 s
Bit rate                                 : 167 b/s
Frame rate                               : 0.203 FPS
Count of elements                        : 617
Stream size                              : 62.2 KiB (0%)
Language                                 : Tamil
Default                                  : No
Forced                                   : No

Text #38
ID                                       : 40
Format                                   : UTF-8
Codec ID                                 : S_TEXT/UTF8
Codec ID/Info                            : UTF-8 Plain Text
Duration                                 : 50 min 42 s
Bit rate                                 : 165 b/s
Frame rate                               : 0.203 FPS
Count of elements                        : 617
Stream size                              : 61.6 KiB (0%)
Language                                 : Telugu
Default                                  : No
Forced                                   : No

Text #39
ID                                       : 41
Format                                   : UTF-8
Codec ID                                 : S_TEXT/UTF8
Codec ID/Info                            : UTF-8 Plain Text
Duration                                 : 50 min 42 s
Bit rate                                 : 138 b/s
Frame rate                               : 0.203 FPS
Count of elements                        : 617
Stream size                              : 51.4 KiB (0%)
Language                                 : Thai
Default                                  : No
Forced                                   : No

Text #40
ID                                       : 42
Format                                   : UTF-8
Codec ID                                 : S_TEXT/UTF8
Codec ID/Info                            : UTF-8 Plain Text
Duration                                 : 50 min 42 s
Bit rate                                 : 53 b/s
Frame rate                               : 0.200 FPS
Count of elements                        : 607
Stream size                              : 20.0 KiB (0%)
Language                                 : Turkish
Default                                  : No
Forced                                   : No

Text #41
ID                                       : 43
Format                                   : UTF-8
Codec ID                                 : S_TEXT/UTF8
Codec ID/Info                            : UTF-8 Plain Text
Duration                                 : 50 min 42 s
Bit rate                                 : 86 b/s
Frame rate                               : 0.203 FPS
Count of elements                        : 618
Stream size                              : 32.3 KiB (0%)
Language                                 : Ukrainian
Default                                  : No
Forced                                   : No

Text #42
ID                                       : 44
Format                                   : UTF-8
Codec ID                                 : S_TEXT/UTF8
Codec ID/Info                            : UTF-8 Plain Text
Duration                                 : 50 min 42 s
Bit rate                                 : 72 b/s
Frame rate                               : 0.203 FPS
Count of elements                        : 617
Stream size                              : 26.8 KiB (0%)
Language                                 : Vietnamese
Default                                  : No
Forced                                   : No

Text #43
ID                                       : 45
Format                                   : UTF-8
Codec ID                                 : S_TEXT/UTF8
Codec ID/Info                            : UTF-8 Plain Text
Duration                                 : 50 min 42 s
Bit rate                                 : 43 b/s
Frame rate                               : 0.203 FPS
Count of elements                        : 618
Stream size                              : 16.3 KiB (0%)
Title                                    : Traditional
Language                                 : Cantonese (Hant)
Default                                  : No
Forced                                   : No

Menu
00:00:00.000                             : en:Studio Logo
00:00:08.963                             : en:Recap
00:01:20.295                             : en:Scene 01
00:04:39.920                             : en:Intro
00:05:23.378                             : en:Scene 02
00:49:33.416                             : en:Credits



Download
File Container: MKV
Video/Audio Codec: H264 (HIGH) EAC3
Video Resolution: 1280x720
Please Login to post a comment.
If you don't have any account, please Register.
  • Subscribe my Feeds
  • Facebook
Encoding Queue:  x264  x265

Latest Episodes

Popular Movies and TV Shows

  • Accidental Texan
  • My Little Nightmare
  • MR-9: Do or Die
  • Interior Design Masters
  • The Simpsons
  • The Dust Bowl
  • Shogun
  • Monkey Man
  • Arthur the King
  • NCIS
  • The Neighborhood
  • Downtown Owl
  • NCIS: Hawai'i
  • Aftermath
  • Bob Hearts Abishola
  • Red Eye
  • I'm Reed Fish
  • One Life
  • Real Time with Bill Maher
  • Tracker
  • The Bold and the Beautiful
  • Time Addicts
  • Dune: Part Two
  • Kung Fu Panda 4
  • The Sympathizer

Recent Comments

  • mentalityx:

    Thx dude.

  • 89M:

    NitroFlare's link is missing !!!
    Clicknupload's link is missing !!!

  • V4ND4L: May we get a ClicknUpload link for this, please. It's conspicuously missing for the team/size.
  • Bud:

    The file's half the size it should be & corrupted. Useless. Avoid.

  • mentalityx:

    Rad dude

  • mentalityx:

    Rad mate

  • waanaabe:

    I tried this file with 3 different players which all said they couldn't read the codec

  • Rosa: hi i have a question,this file size is 198mb,but on clickenupload is only 118mb is it right? what ha...
  • mike1204:

    Any reason why this episode is omitted from 'click'n'upload??

  • kellym2: I appreciate all the hard work the team does BUT there is no point in my paying for a Premium subscr...
  • Cinque_Persson: Why not skip the old news and hearsay and be constructive: what's the best alternatives for Win, Mac...
  • fallensammer:

    the file on click upload is 119mg onnly and is corrupted

  • ronkanon:

    Could you please provide a ClicknUpload link?

  • ronkanon:

    Could you please provide a ClicknUpload link?

  • waanaabe: Could you Kindly Upload the SOUTH PARK seasons to CU as well? Would be really appreciated
  • gusmac67:

    Clickupload link is corrupt. File bad at 38 min

  • timt:

    Narrated Movie!

Archives