Sign Up   |   Sign In  

Announcements

Want to support us?
Buy a RapidRAR account from our resellers:
Buy or renew a NitroFlare account via THIS LINK

04/15

2017

No

Comments

The Originals S04E05 WEBRip x264-RARBG
[RR/NF/UL/OL/OLw/UR]
Size: 369MB mp4 H264 (HIGH) (AVC1) / AAC (LC) (MP4A) 720x400

The Originals
Click on the image to see full size
[RR/NF/UL/OL/OLw/UR] The Originals S04E05 WEBRip x264-RARBG (369MB) - Snapshot 1[RR/NF/UL/OL/OLw/UR] The Originals S04E05 WEBRip x264-RARBG (369MB) - Snapshot 2
File Information
[URL]http://www.imdb.com/title/tt2632424/[/URL]
[screenshots]
[URL=http://imagecurl.com/viewer.php?file=98574893967707132980.png][IMG]http://imagecurl.com/images/98574893967707132980_thumb.png[/IMG][/URL]
[URL=http://imagecurl.com/viewer.php?file=69475872043175715871.png][IMG]http://imagecurl.com/images/69475872043175715871_thumb.png[/IMG][/URL]
[URL=http://imagecurl.com/viewer.php?file=63231568982172984468.png][IMG]http://imagecurl.com/images/63231568982172984468_thumb.png[/IMG][/URL]
[URL=http://imagecurl.com/viewer.php?file=33136594090916721906.png][IMG]http://imagecurl.com/images/33136594090916721906_thumb.png[/IMG][/URL]

[/screenshots]


[mediainfo]
Video
ID                                       : 1
Format                                   : AVC
Format/Info                              : Advanced Video Codec
Format profile                           : [email protected]
Format settings, CABAC                   : Yes
Format settings, ReFrames                : 5 frames
Codec ID                                 : avc1
Codec ID/Info                            : Advanced Video Coding
Duration                                 : 42mn 19s
Bit rate                                 : 1 100 Kbps
Width                                    : 720 pixels
Height                                   : 400 pixels
Display aspect ratio                     : 16:9
Frame rate mode                          : Constant
Frame rate                               : 23.976 (24000/1001) fps
Color space                              : YUV
Chroma subsampling                       : 4:2:0
Bit depth                                : 8 bits
Scan type                                : Progressive
Bits/(Pixel*Frame)                       : 0.159
Stream size                              : 329 MiB (89%)
Title                                    : RARBG.COM - The.Originals.S04E05.WEBRip.x264-RARBG
Writing library                          : x264 core 148 r2597M e86f3a1
 Encoding settings                        : cabac=1 / ref=5 / deblock=1:-1:-1 / analyse=0x3:0x113 / me=umh / subme=9 / psy=1 / psy_rd=1.00:0.15 / mixed_ref=1 / me_range=16 / chroma_me=1 / trellis=2 / 8x8dct=1 / cqm=0 / deadz / fast pskip=1 / chroma_qp_offset=-3 / threads=12 / lookahead_threads=1 / sliced_threads=0 / nr=0 / decimate=1 / interlaced=0 / bluray_compat=0 / c / bframes=3 / b_pyramid=2 / b_adapt=2 / b_bias=0 / direct=3 / weightb=1 / open_gop=0 / weightp=2 / keyint=250 / keyint_min=23 / scenecut=40 / intra_refresh=0 / rc_lookahead=50 / rc=abr / mbtree=1 / bitrate=1100 / ratetol=1.0 / qcomp=0.60 / qpmin=0 / qpmax=69 / qpstep=4 / ip_ratio=1.40 / aq=1:1.00
Language                                 : English
Encoded date                             : UTC 2017-04-15 22:03:05
Tagged date                              : UTC 2017-04-15 22:03:05

Audio
ID                                       : 2
Format                                   : AAC
Format/Info                              : Advanced Audio Codec
Format profile                           : LC
Codec ID                                 : 40
Duration                                 : 42mn 19s
Bit rate mode                            : Constant
Bit rate                                 : 128 Kbps
Channel(s)                               : 2 channels
Channel positions                        : Front: L R
Sampling rate                            : 48.0 KHz
Frame rate                               : 46.875 fps (1024 spf)
Compression mode                         : Lossy
Stream size                              : 38.8 MiB (10%)
Title                                    : RARBG.COM - The.Originals.S04E05.WEBRip.x264-RARBG
Language                                 : English
Default                                  : Yes
Alternate group                          : 1
Encoded date                             : UTC 2017-04-15 22:03:05
Tagged date                              : UTC 2017-04-15 22:03:05



[/mediainfo]
Download
File Container: MP4
Video/Audio Codec: H264 (HIGH) (AVC1) AAC (LC) (MP4A)
Video Resolution: 720x400
 
 
 
 
 
Watch Online [MP4]

Show us some love

Leave a Comment

  • (never displayed)
  •  
        Members don't see captchas. Sign Up / Sign In
  • Notify me via email when someone responds.
  • Subscribe my Feeds
  • Facebook

Latest Episodes

Popular Movies and TV Shows

  • The Handmaid's Tale
  • White Gold
  • The Flash
  • The Assignment
  • Aftermath
  • Bonded by Blood 2
  • Prison Break: Sequel
  • The Americans
  • iZombie
  • John Wick: Chapter 2
  • Russian Lolita
  • The Boss Baby
  • Brooklyn Nine-Nine
  • Bull
  • Supergirl
  • Logan
  • Eat Local
  • Night of Something Strange
  • Pretty Little Liars
  • Better Call Saul
  • Gotham
  • The Last Face
  • Beauty and the Beast
  • Grave
  • Twin Peaks

Recent Comments

  • Byala:

    Thanks we already knew that. Episode 8 will air May 31

  • Wrapt:

    Episode 7 and 8 are the same episode just a headsup for all

  • AshRough:

    Thnx.....

  • deka:

    the 2017 BBMAs please....

    thanks

  • Blue Moon: @wentworthy nice try, but you posted this on episode 7 page meaning you're not waiting for ep 7 only...
  • b007:

    Thanks for the upload. Appreciate it!

  • irfan:

    link openload was dead... plz reupload for that

  • David-A-H:

    Thank you

  • maryaam:

    it was episode 7!!!!!

  • celebfan200202020: Wow! The picture quality on this sucks, especially for the size it is. It looks JUST like the video ...