Sign Up   |   Sign In  

Announcements

Want to support us?
Buy a RapidRAR account from our resellers:
Buy or renew a NitroFlare account via THIS LINK
Until further notice, We will continue uploading files to uploaded.net.

08/06

2012

No

Comments

The Pirates Band of Misfits 2012 DVDRip XviD AC3-Voltage
[RS/ZS/UL]
Size: 1.1GB avi XVID / AC3

The Pirates! Band of Misfits
Click on the image to see full size
[RS/ZS/FC/UL] The Pirates Band of Misfits 2012 DVDRip XviD AC3-Voltage (1.1GB) - Snapshot 1[RS/ZS/FC/UL] The Pirates Band of Misfits 2012 DVDRip XviD AC3-Voltage (1.1GB) - Snapshot 2[RS/ZS/FC/UL] The Pirates Band of Misfits 2012 DVDRip XviD AC3-Voltage (1.1GB) - Snapshot 3
File Information
                                                                  Proudly Presents!!! 

  -----------------------------------------------------------------------------------------------------------  
                    The.Pirates.Band.of.Misfits.2012.DVDRip.XviD.AC3-Voltage  
  -----------------------------------------------------------------------------------------------------------  

 
Source........::: The.Pirates.Band.of.Misfits.2012.DVDR
Encoder.......::: Dreamer
 


  -----------------------------------------------------------------------------------------------------------  
                                                                           Video                                                                                     
  -----------------------------------------------------------------------------------------------------------  

 
General
Complete name                            : The.Pirates.Band.of.Misfits.2012.DVDRip.XviD.AC3-Voltage.avi
Format                                   : AVI
Format/Info                              : Audio Video Interleave
File size                                : 1.10 GiB
Duration                                 : 1h 28mn
Overall bit rate                         : 1 793 Kbps

Video
ID                                       : 0
Format                                   : MPEG-4 Visual
Format profile                           : Advanced [email protected]
Format settings, BVOP                    : 2
Format settings, QPel                    : No
Format settings, GMC                     : No warppoints
Format settings, Matrix                  : Default (H.263)
Codec ID                                 : XVID
Codec ID/Hint                            : XviD
Duration                                 : 1h 28mn
Bit rate                                 : 1 400 Kbps
Width                                    : 720 pixels
Height                                   : 304 pixels
Display aspect ratio                     : 2.35:1
Frame rate                               : 23.976 fps
Color space                              : YUV
Chroma subsampling                       : 4:2:0
Bit depth                                : 8 bits
Scan type                                : Progressive
Compression mode                         : Lossy
Bits/(Pixel*Frame)                       : 0.267
Stream size                              : 882 MiB (78%)
Writing library                          : XviD 1.2.1 (UTC 2008-12-04)
 


  -----------------------------------------------------------------------------------------------------------  

                                                                           Audio                                                                                    
  -----------------------------------------------------------------------------------------------------------  
 
Audio
ID                                       : 1
Format                                   : AC-3
Format/Info                              : Audio Coding 3
Mode extension                           : CM (complete main)
Format settings, Endianness              : Big
Codec ID                                 : 2000
Duration                                 : 1h 28mn
Bit rate mode                            : Constant
Bit rate                                 : 384 Kbps
Channel(s)                               : 6 channels
Channel positions                        : Front: L C R, Side: L R, LFE
Sampling rate                            : 48.0 KHz
Bit depth                                : 16 bits
Compression mode                         : Lossy
Stream size                              : 242 MiB (21%)
Alignment                                : Split accross interleaves
Interleave, duration                     : 42 ms (1.00 video frame)
Interleave, preload duration             : 500 ms
 


  -----------------------------------------------------------------------------------------------------------  
                                                                           Info                                                                                     
  -----------------------------------------------------------------------------------------------------------  
 

IMDB LINK....:: http://www.imdb.com/title/tt1430626/
Audio.............:: English
Subtitles........:: None

 

  -----------------------------------------------------------------------------------------------------------  
                                                                    Screens                                                                               
  -----------------------------------------------------------------------------------------------------------   







  -----------------------------------------------------------------------------------------------------------  
                                                                    Notes                                                                              
  -----------------------------------------------------------------------------------------------------------  
Voltage picking up where it left off! we are back! to our past members you no who you are use done a great job . we are here
to set things straight. we pride ourself's on PURE QUALiTY. RESPECT goes out to our old friends . iNNERCORE - Lordblueeyes
- GHOST & TWEAK (Rx) - Zahnzi - FUSiON - WHiiZz - OZi & DjDayv - SANTi - AND yes we didnt forget you either BEEZY.... Prepare yourself's.......
want to join our irc?..  just ask

 
-----------------------------------------------------------------------------------------------------------  
                                                                     Greets                                                                                  
  -----------------------------------------------------------------------------------------------------------    
Rx - Paulx1 - Rlounge - Jambo - Devise - Fusion - PrisM - Darsh - Ghost - W00t - TheGrim -
                        Flawl3ss -  Satya - Framestor - LEGi0N - and Many More                    
Download
File Container: AVI
Video/Audio Codec: XVID AC3
Video Resolution:
RAR Recovery Record: 5% (How to repair corrupted archive RAR file?)
Link(s) are dead.
Link(s) are dead.
Link(s) are dead.

Leave a Comment

  • (never displayed)
  •  
        Members don't see captchas. Sign Up / Sign In
  • Notify me via email when someone responds.
  • Subscribe my Feeds
  • Facebook

Latest Episodes

Popular Movies and TV Shows

  • The Gifted
  • Manifest
  • Three Identical Strangers
  • Avengers Assemble
  • Road to Perdition
  • The Principal
  • Magnum P.I.
  • The Big Bang Theory
  • Leave No Trace
  • The Venture Bros.
  • The Seagull
  • Feral
  • The Good Doctor
  • Young Sheldon
  • Eighth Grade
  • Better Call Saul
  • Hotel Transylvania 3: Summer Vacation
  • Finding Oscar
  • Bull
  • The Resident
  • 9-1-1
  • Jane Fonda in Five Acts
  • Conrad & Michelle: If Words Could Kill
  • Outlawed
  • The Daily Show

Recent Comments

Archives