Sign Up   |   Sign In  
Family GuyThe 100th: Billy Joel at Madison Square Garden - The Greatest Arena Run of All TimeHundreds of BeaversI Was Reincarnated as the 7th Prince So I Can Take My Time Perfecting My Magical AbilityHomicide: New YorkAbba: How They Won EurovisionThe SympathizerTrackerDune: Part TwoModel HouseThe Great NorthKurt Cobain: Moments That Shook MusicWhen Calls the HeartSullivan's CrossingThe Batman vs. DraculaBeacon 23The ChannelThere's Still TomorrowFalloutShogunS.W.A.T.Trinket BoxTo Die ForThe Taste of ThingsFBI

Announcements

02/28

2024

1

Comments

The Rookie S06E02 The Hammer 720p AMZN WEB-DL DDP5 1 H 264-NTb
[RR/NF/CU]
Size: 1.5GB mkv H264 (HIGH) / EAC3  HD  1280x720

The Rookie
File Information
[img]http://lookpic.com/cdn/i2/t/0228202410205680-1.jpg[/img]
[img]http://lookpic.com/cdn/i2/t/0228202410205680-2.jpg[/img]
[img]http://lookpic.com/cdn/i2/t/0228202410205680-3.jpg[/img]

General
Unique ID                                : 41685643334929383915290995507676650683 (0x1F5C5CE55FE5EC550E9D728367191CBB)
Complete name                            : The.Rookie.S06E02.The.Hammer.720p.AMZN.WEB-DL.DDP5.1.H.264-NTb.mkv
Format                                   : Matroska
Format version                           : Version 4
File size                                : 1.48 GiB
Duration                                 : 43 min 4 s
Overall bit rate                         : 4 922 kb/s
Frame rate                               : 23.976 FPS
Writing application                      : mkvmerge v81.0 ('Milliontown') 64-bit
Writing library                          : libebml v1.4.4 + libmatroska v1.7.1

Video
ID                                       : 1
Format                                   : AVC
Format/Info                              : Advanced Video Codec
Format profile                           : High@L3.1
Format settings                          : CABAC / 4 Ref Frames
Format settings, CABAC                   : Yes
Format settings, Reference frames        : 4 frames
Codec ID                                 : V_MPEG4/ISO/AVC
Duration                                 : 43 min 4 s
Bit rate mode                            : Constant
Bit rate                                 : 4 280 kb/s
Nominal bit rate                         : 6 000 kb/s
Width                                    : 1 280 pixels
Height                                   : 720 pixels
Display aspect ratio                     : 16:9
Frame rate mode                          : Constant
Frame rate                               : 23.976 (24000/1001) FPS
Color space                              : YUV
Chroma subsampling                       : 4:2:0
Bit depth                                : 8 bits
Scan type                                : Progressive
Bits/(Pixel*Frame)                       : 0.194
Stream size                              : 1.29 GiB (87%)
Default                                  : Yes
Forced                                   : No
Color range                              : Limited
Color primaries                          : BT.709
Transfer characteristics                 : BT.709
Matrix coefficients                      : BT.709

Audio
ID                                       : 2
Format                                   : E-AC-3
Format/Info                              : Enhanced AC-3
Commercial name                          : Dolby Digital Plus
Codec ID                                 : A_EAC3
Duration                                 : 43 min 4 s
Bit rate mode                            : Constant
Bit rate                                 : 640 kb/s
Channel(s)                               : 6 channels
Channel layout                           : L R C LFE Ls Rs
Sampling rate                            : 48.0 kHz
Frame rate                               : 31.250 FPS (1536 SPF)
Compression mode                         : Lossy
Stream size                              : 197 MiB (13%)
Language                                 : English (US)
Service kind                             : Complete Main
Default                                  : Yes
Forced                                   : No

Text #1
ID                                       : 3
Format                                   : UTF-8
Codec ID                                 : S_TEXT/UTF8
Codec ID/Info                            : UTF-8 Plain Text
Duration                                 : 42 min 51 s
Bit rate                                 : 100 b/s
Frame rate                               : 0.397 FPS
Count of elements                        : 1021
Stream size                              : 31.4 KiB (0%)
Language                                 : English (US)
Default                                  : No
Forced                                   : No

Text #2
ID                                       : 4
Format                                   : UTF-8
Codec ID                                 : S_TEXT/UTF8
Codec ID/Info                            : UTF-8 Plain Text
Duration                                 : 42 min 55 s
Bit rate                                 : 106 b/s
Frame rate                               : 0.430 FPS
Count of elements                        : 1108
Stream size                              : 33.3 KiB (0%)
Title                                    : SDH
Language                                 : English (US)
Default                                  : No
Forced                                   : No



Download
File Container: MKV
Video/Audio Codec: H264 (HIGH) EAC3
Video Resolution: 1280x720

1 Response to "[RR/NF/CU] The Rookie S06E02 The Hammer 720p AMZN WEB-DL DDP5 1 H 264-NTb (1.5GB)"
02/28/24
20:46:56
ReadyPlayerOne

Thank You

Please Login to post a comment.
If you don't have any account, please Register.
  • Subscribe my Feeds
  • Facebook
Encoding Queue:  x264  x265

Latest Episodes

Popular Movies and TV Shows

  • Family Guy
  • The 100th: Billy Joel at Madison Square Garden - The Greatest Arena Run of All Time
  • Hundreds of Beavers
  • I Was Reincarnated as the 7th Prince So I Can Take My Time Perfecting My Magical Ability
  • Homicide: New York
  • Abba: How They Won Eurovision
  • The Sympathizer
  • Tracker
  • Dune: Part Two
  • Model House
  • The Great North
  • Kurt Cobain: Moments That Shook Music
  • When Calls the Heart
  • Sullivan's Crossing
  • The Batman vs. Dracula
  • Beacon 23
  • The Channel
  • There's Still Tomorrow
  • Fallout
  • Shogun
  • S.W.A.T.
  • Trinket Box
  • To Die For
  • The Taste of Things
  • FBI

Recent Comments

  • Bud:

    Are you ever going to put up Thursday's episode with Liev Schreiber?

  • alp-engin:

    When will that maintenance be over? Please...

  • mentalityx:

    Rad bloke

  • DownloadHostInspector:

    so far these RMTeam uploads always have a working link. DownloadHostInspector approved!

  • DownloadHostInspector:

    ah yes, this upload has a host that works. clicknupload. DownloadHostInspector approved!

  • DownloadHostInspector: Why are all the download hosts trash? none of them let you download it
  • Qua4ratic:

    clicknupload link plz

  • ppoo:

    Please, can you add "Real Time with Bill Maher S22E11" ??

  • theahtisham:

    Kindly upload Ep. 3 and 4 as well.

Archives