Sign Up   |   Sign In  
ShogunMonkey ManNCISArthur the KingNCIS: Hawai'iDowntown OwlThe NeighborhoodBob Hearts AbisholaWWE RawThe CostOne LifeWhich Brings Me to YouTrackerFalloutThe SimpsonsTime AddictsKung Fu Panda 4Rebel Moon - Part Two: The ScargiverThe SympathizerCSI: VegasThe EqualizerFern Brady: Autistic Bikini QueenTigers on the RiseTigerBeacon 23

Announcements

02/19

2024

1

Comments

The Simpsons S35E11 Frinkensteins Monster 720p HULU WEB-DL DDP5 1 H 264-NTb
[RR/NF/CU]
Size: 192MB mkv H264 (HIGH) / EAC3  HD  1280x720

The Simpsons
File Information
[img]http://lookpic.com/cdn/i2/t/0219202410372342-1.jpg[/img]
[img]http://lookpic.com/cdn/i2/t/0219202410372342-2.jpg[/img]
[img]http://lookpic.com/cdn/i2/t/0219202410372342-3.jpg[/img]

General
Unique ID                                : 113982940763043389680087647582332351866 (0x55C050DD4809B2E2272A65E37017757A)
Complete name                            : The.Simpsons.S35E11.Frinkensteins.Monster.720p.HULU.WEB-DL.DDP5.1.H.264-NTb.mkv
Format                                   : Matroska
Format version                           : Version 4
File size                                : 192 MiB
Duration                                 : 21 min 40 s
Overall bit rate                         : 1 241 kb/s
Frame rate                               : 23.976 FPS
Writing application                      : mkvmerge v80.0 ('Roundabout') 64-bit
Writing library                          : libebml v1.4.4 + libmatroska v1.7.1

Video
ID                                       : 1
Format                                   : AVC
Format/Info                              : Advanced Video Codec
Format profile                           : High@L3.1
Format settings                          : CABAC / 5 Ref Frames
Format settings, CABAC                   : Yes
Format settings, Reference frames        : 5 frames
Codec ID                                 : V_MPEG4/ISO/AVC
Duration                                 : 21 min 40 s
Bit rate                                 : 983 kb/s
Width                                    : 1 280 pixels
Height                                   : 720 pixels
Display aspect ratio                     : 16:9
Frame rate mode                          : Constant
Frame rate                               : 23.976 (24000/1001) FPS
Color space                              : YUV
Chroma subsampling                       : 4:2:0
Bit depth                                : 8 bits
Scan type                                : Progressive
Bits/(Pixel*Frame)                       : 0.044
Stream size                              : 152 MiB (79%)
Default                                  : Yes
Forced                                   : No

Audio
ID                                       : 2
Format                                   : E-AC-3
Format/Info                              : Enhanced AC-3
Commercial name                          : Dolby Digital Plus
Codec ID                                 : A_EAC3
Duration                                 : 21 min 40 s
Bit rate mode                            : Constant
Bit rate                                 : 256 kb/s
Channel(s)                               : 6 channels
Channel layout                           : L R C LFE Ls Rs
Sampling rate                            : 48.0 kHz
Frame rate                               : 31.250 FPS (1536 SPF)
Compression mode                         : Lossy
Stream size                              : 39.7 MiB (21%)
Language                                 : English
Service kind                             : Complete Main
Default                                  : Yes
Forced                                   : No

Text #1
ID                                       : 3
Format                                   : UTF-8
Codec ID                                 : S_TEXT/UTF8
Codec ID/Info                            : UTF-8 Plain Text
Duration                                 : 21 min 4 s
Bit rate                                 : 97 b/s
Frame rate                               : 0.344 FPS
Count of elements                        : 435
Stream size                              : 15.0 KiB (0%)
Language                                 : English
Default                                  : No
Forced                                   : No

Text #2
ID                                       : 4
Format                                   : UTF-8
Codec ID                                 : S_TEXT/UTF8
Codec ID/Info                            : UTF-8 Plain Text
Duration                                 : 21 min 26 s
Bit rate                                 : 101 b/s
Frame rate                               : 0.369 FPS
Count of elements                        : 475
Stream size                              : 16.0 KiB (0%)
Title                                    : SDH
Language                                 : English
Default                                  : No
Forced                                   : No

Menu
00:00:00.000                             : en:Chapter 1
00:07:51.015                             : en:Chapter 2
00:15:15.014                             : en:Chapter 3
00:20:22.003                             : en:Chapter 4
00:20:50.011                             : en:Credits



Download
File Container: MKV
Video/Audio Codec: H264 (HIGH) EAC3
Video Resolution: 1280x720

1 Response to "[RR/NF/CU] The Simpsons S35E11 Frinkensteins Monster 720p HULU WEB-DL DDP5 1 H 264-NTb (192MB)"
02/19/24
22:03:29
ReadyPlayerOne

Thank you!

Please Login to post a comment.
If you don't have any account, please Register.
  • Subscribe my Feeds
  • Facebook
Encoding Queue:  x264  x265

Latest Episodes

Popular Movies and TV Shows

  • Shogun
  • Monkey Man
  • NCIS
  • Arthur the King
  • NCIS: Hawai'i
  • Downtown Owl
  • The Neighborhood
  • Bob Hearts Abishola
  • WWE Raw
  • The Cost
  • One Life
  • Which Brings Me to You
  • Tracker
  • Fallout
  • The Simpsons
  • Time Addicts
  • Kung Fu Panda 4
  • Rebel Moon - Part Two: The Scargiver
  • The Sympathizer
  • CSI: Vegas
  • The Equalizer
  • Fern Brady: Autistic Bikini Queen
  • Tigers on the Rise
  • Tiger
  • Beacon 23

Recent Comments

  • 89M:

    NitroFlare's link is missing !!!
    Clicknupload's link is missing !!!

  • V4ND4L: May we get a ClicknUpload link for this, please. It's conspicuously missing for the team/size.
  • Bud:

    The file's half the size it should be & corrupted. Useless. Avoid.

  • mentalityx:

    Rad dude

  • mentalityx:

    Rad mate

  • waanaabe:

    I tried this file with 3 different players which all said they couldn't read the codec

  • Rosa: hi i have a question,this file size is 198mb,but on clickenupload is only 118mb is it right? what ha...
  • mike1204:

    Any reason why this episode is omitted from 'click'n'upload??

  • kellym2: I appreciate all the hard work the team does BUT there is no point in my paying for a Premium subscr...
  • Cinque_Persson: Why not skip the old news and hearsay and be constructive: what's the best alternatives for Win, Mac...
  • fallensammer:

    the file on click upload is 119mg onnly and is corrupted

  • ronkanon:

    Could you please provide a ClicknUpload link?

  • ronkanon:

    Could you please provide a ClicknUpload link?

  • waanaabe: Could you Kindly Upload the SOUTH PARK seasons to CU as well? Would be really appreciated
  • gusmac67:

    Clickupload link is corrupt. File bad at 38 min

  • timt:

    Narrated Movie!

  • Richardexamp: I recently stumbled upon https://asiancasinos.org/ and I obligated to symbolize, it has with dispatc...

Archives