Sign Up   |   Sign In  

Announcements

Want to support us?
Buy a RapidRAR account from our resellers:
Buy or renew a NitroFlare account via THIS LINK
We'll stop uploading files to Uploaded.net in December 2017.

06/19

2017

No

Comments

The Sixth Day 2000 720p BluRay H264 AAC-RARBG
[RR/NF/UL/UR/CU]
Size: 1.5GB mp4 H264 (HIGH) (AVC1) / AAC (LC) (MP4A)  HD  1280x534

The 6th Day
Click on the image to see full size
[RR/NF/UL/UR/CU] The Sixth Day 2000 720p BluRay H264 AAC-RARBG (1.5GB) - Snapshot 1
File Information
[URL=http://imagecurl.com/viewer.php?file=82034956083351979084.png][IMG]http://imagecurl.com/images/82034956083351979084_thumb.png[/IMG][/URL]
[URL=http://imagecurl.com/viewer.php?file=02148515466249356957.png][IMG]http://imagecurl.com/images/02148515466249356957_thumb.png[/IMG][/URL]
[URL=http://imagecurl.com/viewer.php?file=73633038880499623801.png][IMG]http://imagecurl.com/images/73633038880499623801_thumb.png[/IMG][/URL]
[URL=http://imagecurl.com/viewer.php?file=46287448142709187085.png][IMG]http://imagecurl.com/images/46287448142709187085_thumb.png[/IMG][/URL]
[URL=http://imagecurl.com/viewer.php?file=97900484304340119283.png][IMG]http://imagecurl.com/images/97900484304340119283_thumb.png[/IMG][/URL]


[mediainfo]
Video
ID                                       : 1
Format                                   : AVC
Format/Info                              : Advanced Video Codec
Format profile                           : [email protected]
Format settings, CABAC                   : Yes
Format settings, ReFrames                : 4 frames
Codec ID                                 : avc1
Codec ID/Info                            : Advanced Video Coding
Duration                                 : 2 h 3 min
Bit rate                                 : 1 500 kb/s
Width                                    : 1 280 pixels
Height                                   : 534 pixels
Display aspect ratio                     : 2.40:1
Frame rate mode                          : Constant
Frame rate                               : 23.976 (23976/1000) FPS
Color space                              : YUV
Chroma subsampling                       : 4:2:0
Bit depth                                : 8 bits
Scan type                                : Progressive
Bits/(Pixel*Frame)                       : 0.092
Stream size                              : 1.29 GiB (87%)
Writing library                          : x264 core 148 r2597M e86f3a1
 Encoding settings                        : cabac=1 / ref=4 / deblock=1:-1:-1 / analyse=0x3:0x113 / me=umh / subme=9 / psy=1 / psy_rd=1.00:0.15 / mixed_ref=1 / me_range=24 / chroma_me=1 / trellis=2 / 8x8dct=1 / cqm=0 / deadz / fast pskip=1 / chroma_qp_offset=-3 / threads=32 / lookahead_threads=4 / sliced_threads=0 / nr=0 / decimate=1 / interlaced=0 / bluray_compat=0 / c / bframes=3 / b_pyramid=2 / b_adapt=2 / b_bias=0 / direct=3 / weightb=1 / open_gop=0 / weightp=2 / keyint=250 / keyint_min=25 / scenecut=40 / intra_refresh=0 / rc_lookahead=50 / rc=2pass / mbtree=1 / bitrate=1500 / ratetol=1.0 / qcomp=0.60 / qpmin=0 / qpmax=69 / qpstep=4 / cplxblur=20.0 / qblur=0.5 / vbv_maxrate=31250 / vbv_bufsize=31250 / nal_hrd=none / filler=0 / ip_ratio=1.40 / aq=3:1.00
Encoded date                             : UTC 2017-06-19 12:32:35
Tagged date                              : UTC 2017-06-19 12:32:35

Audio
ID                                       : 2
Format                                   : AAC
Format/Info                              : Advanced Audio Codec
Format profile                           : LC
Codec ID                                 : 40
Duration                                 : 2 h 3 min
Bit rate mode                            : Constant
Bit rate                                 : 224 kb/s
Channel(s)                               : 2 channels
Channel(s)_Original                      : 6 channels
Channel positions                        : Front: L C R, Side: L R, LFE
Sampling rate                            : 48.0 kHz
Frame rate                               : 46.875 FPS (1024 spf)
Compression mode                         : Lossy
Stream size                              : 198 MiB (13%)
Language                                 : English
Default                                  : Yes
Alternate group                          : 1
Encoded date                             : UTC 2017-06-19 12:32:35
Tagged date                              : UTC 2017-06-19 12:32:35



[/mediainfo]
Download
File Container: MP4
Video/Audio Codec: H264 (HIGH) (AVC1) AAC (LC) (MP4A)
Video Resolution: 1280x534
 
 
 
 
 

Show us some love

Leave a Comment

  • (never displayed)
  •  
        Members don't see captchas. Sign Up / Sign In
  • Notify me via email when someone responds.
  • Subscribe my Feeds
  • Facebook

Latest Episodes

Popular Movies and TV Shows

  • Lethal Weapon
  • Brooklyn Nine-Nine
  • The Flash
  • Totally for Teens
  • Battlefield Earth
  • Kaze ni nureta onna
  • The Big Bang Theory
  • The Daily Show
  • Legends of Tomorrow
  • American Horror Story
  • Bull
  • Upstream Color
  • Fading Gigolo
  • Manifesto
  • NCIS: Naval Criminal Investigative Service
  • This Is Us
  • The Mick
  • Maudie
  • The Dark Tower
  • American Made
  • Star Trek: Discovery
  • The Gifted
  • Lucifer
  • Atomic Blonde
  • War for the Planet of the Apes

Recent Comments

  • Thanks for MP4:

    Thanks for MP4 conversion. MKV sux

  • MeH: Great show! Good quality! Good job
  • MeH: Good series! Acceptable quality! Thanks
  • MeH: Good series! Acceptable quality! Thanks
  • MeH: Great show! Good quality! Thanks
  • stim022:

    wrong format on openload

  • stim022:

    wrong format on openload

  • MeH:

    A good quality (video bit rate > 900kbps) 720p HEVC encode for this movie is needed!

  • spidapig: There is an admin here, he just chooses to sit on his fat Russian bum and eat doughnuts washed down ...
  • meridian:

    There is no admin here. This site is 99% automated.