Sign Up   |   Sign In  

Announcements

Want to support us?
Buy a RapidRAR account from our resellers:
Buy or renew a NitroFlare account via THIS LINK
We'll stop uploading files to Uploaded.net in December 2017.

04/16

2017

3

Comments

The Son S01E03 1080p WEB-DL DD5 1 H264-RARBG
[RR/NF/UL/UR]
Size: 1.6GB mkv H264 (HIGH) / AC3  HD  1916x1076

The Son
Click on the image to see full size
[RR/NF/UL/UR] The Son S01E03 1080p WEB-DL DD5 1 H264-RARBG (1.6GB) - Snapshot 1
File Information
[URL=http://imagecurl.com/viewer.php?file=68116951336954107605.png][IMG]http://imagecurl.com/images/68116951336954107605_thumb.png[/IMG][/URL]
[URL=http://imagecurl.com/viewer.php?file=45252002498027969118.png][IMG]http://imagecurl.com/images/45252002498027969118_thumb.png[/IMG][/URL]
[URL=http://imagecurl.com/viewer.php?file=43767033645880455416.png][IMG]http://imagecurl.com/images/43767033645880455416_thumb.png[/IMG][/URL]
[URL=http://imagecurl.com/viewer.php?file=86673230187155353778.png][IMG]http://imagecurl.com/images/86673230187155353778_thumb.png[/IMG][/URL]
[URL=http://imagecurl.com/viewer.php?file=62255906035909784207.png][IMG]http://imagecurl.com/images/62255906035909784207_thumb.png[/IMG][/URL]
[URL=http://imagecurl.com/viewer.php?file=87967293269051104922.png][IMG]http://imagecurl.com/images/87967293269051104922_thumb.png[/IMG][/URL]



[mediainfo]
Video
ID                                       : 1
Format                                   : AVC
Format/Info                              : Advanced Video Codec
Format profile                           : High@L4
Format settings, CABAC                   : Yes
Format settings, ReFrames                : 4 frames
Codec ID                                 : V_MPEG4/ISO/AVC
Duration                                 : 42mn 13s
Bit rate                                 : 5 071 Kbps
Width                                    : 1 916 pixels
Height                                   : 1 076 pixels
Display aspect ratio                     : 16:9
Frame rate mode                          : Constant
Frame rate                               : 23.976 (24000/1001) fps
Color space                              : YUV
Chroma subsampling                       : 4:2:0
Bit depth                                : 8 bits
Scan type                                : Progressive
Bits/(Pixel*Frame)                       : 0.103
Stream size                              : 1.50 GiB (91%)
Title                                    : The.Son.S01E03.1080p.WEB-DL.DD5.1.H264-RARBG
Language                                 : English
Default                                  : Yes
Forced                                   : No
Color range                              : Limited
Color primaries                          : BT.709
Transfer characteristics                 : BT.709
Matrix coefficients                      : BT.709

Audio
ID                                       : 2
Format                                   : AC-3
Format/Info                              : Audio Coding 3
Mode extension                           : CM (complete main)
Format settings, Endianness              : Big
Codec ID                                 : A_AC3
Duration                                 : 42mn 13s
Bit rate mode                            : Constant
Bit rate                                 : 384 Kbps
Channel(s)                               : 6 channels
Channel positions                        : Front: L C R, Side: L R, LFE
Sampling rate                            : 48.0 KHz
Frame rate                               : 31.250 fps (1536 spf)
Compression mode                         : Lossy
Stream size                              : 116 MiB (7%)
Title                                    : The.Son.S01E03.1080p.WEB-DL.DD5.1.H264-RARBG
Language                                 : English
Default                                  : Yes
Forced                                   : No

Text #1
ID                                       : 3
Format                                   : UTF-8
Codec ID                                 : S_TEXT/UTF8
Codec ID/Info                            : UTF-8 Plain Text
Language                                 : English
Default                                  : Yes
Forced                                   : No

Text #2
ID                                       : 4
Format                                   : UTF-8
Codec ID                                 : S_TEXT/UTF8
Codec ID/Info                            : UTF-8 Plain Text
Title                                    : SDH
Language                                 : English
Default                                  : No
Forced                                   : No



[/mediainfo]
Download
File Container: MKV
Video/Audio Codec: H264 (HIGH) AC3
Video Resolution: 1916x1076
 
 
 
 

Show us some love

3 Responses to "[RR/NF/UL/UR] The Son S01E03 1080p WEB-DL DD5 1 H264-RARBG (1.6GB)"
05/19/17
17:14:07
Admin

RapidRAR re-uploaded with new RAR file(s) (users who couldn't download some parts need to download all parts again).

05/19/17
17:14:07
Admin

RapidRAR re-uploaded with new RAR file(s) (users who couldn't download some parts need to download all parts again).

05/19/17
17:30:28
Admin

RapidRAR re-uploaded with new RAR file(s) (users who couldn't download some parts need to download all parts again).

Leave a Comment

  • (never displayed)
  •  
        Members don't see captchas. Sign Up / Sign In
  • Notify me via email when someone responds.
  • Subscribe my Feeds
  • Facebook

Latest Episodes

Popular Movies and TV Shows

  • Godless
  • The Flash
  • Legends of Tomorrow
  • American Assassin
  • American Made
  • Conor McGregor: Notorious
  • Lethal Weapon
  • Brooklyn Nine-Nine
  • Runaways
  • Ak-Nyeo
  • Hangman
  • The Little Vampire 3D
  • NCIS: Naval Criminal Investigative Service
  • Bull
  • The Mick
  • Jabberwocky
  • Sexually Bugged!
  • Geostorm
  • Travelers
  • The Gifted
  • Lucifer
  • Home Again
  • Crooked House
  • Topâzu
  • The Walking Dead

Recent Comments