Sign Up   |   Sign In  
Mayor of KingstownBilly the KidStars and RosesConcrete UtopiaGemma & Gorka: Life Behind the LensLove IslandLicence to KillKung Fu HustleLook to the LightOn Patrol: LiveDoctor ClimaxThe Bold and the BeautifulThe Loud HouseWelcome to WrexhamVice News Presents: Mass Shooting AmericaThere's Something About MaryMy Sexual Abuse: The SitcomWWE NXTCatfish: The TV ShowWalkerEnter the Clones of BruceImmaculateInside Out 2The Daily ShowSurvivor

Announcements

05/30

2024

1

Comments

The Sympathizer S01E07 Endings Are Hard Arent They 1080p AMZN WEB-DL DDP5 1 Atmos H 264-FLUX
[RR/NF]
Size: 4.2GB mkv H264 (HIGH) / EAC3  HD  1920x960

The Sympathizer
File Information
[img]http://lookpic.com/cdn/i2/t/0530202409195384-1.jpg[/img]
[img]http://lookpic.com/cdn/i2/t/0530202409195384-2.jpg[/img]
[img]http://lookpic.com/cdn/i2/t/0530202409195384-3.jpg[/img]

General
Unique ID                                : 88704409998158977820673875272889413388 (0x42BBD912B1200E463AD309F2626E2F0C)
Complete name                            : The Sympathizer S01E07 Endings Are Hard Arent They 1080p AMZN WEB-DL DDP5 1 Atmos H 264-FLUX.mkv
Format                                   : Matroska
Format version                           : Version 4
File size                                : 4.17 GiB
Duration                                 : 59 min 43 s
Overall bit rate                         : 9 987 kb/s
Frame rate                               : 23.976 FPS
Writing application                      : mkvmerge v79.0 ('Funeral Pyres') 64-bit
Writing library                          : libebml v1.4.4 + libmatroska v1.7.1

Video
ID                                       : 1
Format                                   : AVC
Format/Info                              : Advanced Video Codec
Format profile                           : High@L4
Format settings                          : CABAC / 4 Ref Frames
Format settings, CABAC                   : Yes
Format settings, Reference frames        : 4 frames
Codec ID                                 : V_MPEG4/ISO/AVC
Duration                                 : 59 min 43 s
Bit rate mode                            : Constant
Bit rate                                 : 9 217 kb/s
Nominal bit rate                         : 10 000 kb/s
Width                                    : 1 920 pixels
Height                                   : 960 pixels
Display aspect ratio                     : 2.000
Frame rate mode                          : Constant
Frame rate                               : 23.976 (24000/1001) FPS
Color space                              : YUV
Chroma subsampling                       : 4:2:0
Bit depth                                : 8 bits
Scan type                                : Progressive
Bits/(Pixel*Frame)                       : 0.209
Stream size                              : 3.84 GiB (92%)
Language                                 : English (US)
Default                                  : Yes
Forced                                   : No
Color range                              : Limited
Color primaries                          : BT.709
Transfer characteristics                 : BT.709
Matrix coefficients                      : BT.709

Audio
ID                                       : 2
Format                                   : E-AC-3 JOC
Format/Info                              : Enhanced AC-3 with Joint Object Coding
Commercial name                          : Dolby Digital Plus with Dolby Atmos
Codec ID                                 : A_EAC3
Duration                                 : 59 min 43 s
Bit rate mode                            : Constant
Bit rate                                 : 768 kb/s
Channel(s)                               : 6 channels
Channel layout                           : L R C LFE Ls Rs
Sampling rate                            : 48.0 kHz
Frame rate                               : 31.250 FPS (1536 SPF)
Compression mode                         : Lossy
Delay relative to video                  : 11 ms
Stream size                              : 328 MiB (8%)
Language                                 : English (US)
Service kind                             : Complete Main
Default                                  : Yes
Forced                                   : No
Complexity index                         : 16
Number of dynamic objects                : 15
Bed channel count                        : 1 channel
Bed channel configuration                : LFE

Text #1
ID                                       : 3
Format                                   : UTF-8
Codec ID                                 : S_TEXT/UTF8
Codec ID/Info                            : UTF-8 Plain Text
Duration                                 : 56 min 18 s
Bit rate                                 : 9 b/s
Frame rate                               : 0.033 FPS
Count of elements                        : 111
Stream size                              : 4.08 KiB (0%)
Language                                 : English (US)
Default                                  : No
Forced                                   : No

Text #2
ID                                       : 4
Format                                   : UTF-8
Codec ID                                 : S_TEXT/UTF8
Codec ID/Info                            : UTF-8 Plain Text
Duration                                 : 59 min 33 s
Bit rate                                 : 19 b/s
Frame rate                               : 0.099 FPS
Count of elements                        : 355
Stream size                              : 8.69 KiB (0%)
Title                                    : SDH
Language                                 : English (US)
Default                                  : No
Forced                                   : No

Text #3
ID                                       : 5
Format                                   : UTF-8
Codec ID                                 : S_TEXT/UTF8
Codec ID/Info                            : UTF-8 Plain Text
Duration                                 : 59 min 15 s
Bit rate                                 : 46 b/s
Frame rate                               : 0.165 FPS
Count of elements                        : 587
Stream size                              : 20.2 KiB (0%)
Title                                    : Latin American
Language                                 : Spanish (Latin America)
Default                                  : No
Forced                                   : No

Text #4
ID                                       : 6
Format                                   : UTF-8
Codec ID                                 : S_TEXT/UTF8
Codec ID/Info                            : UTF-8 Plain Text
Duration                                 : 59 min 15 s
Bit rate                                 : 45 b/s
Frame rate                               : 0.165 FPS
Count of elements                        : 586
Stream size                              : 19.6 KiB (0%)
Title                                    : Brazilian
Language                                 : Portuguese (BR)
Default                                  : No
Forced                                   : No

Menu
00:57:27.019                             : en:Credits



Download
File Container: MKV
Video/Audio Codec: H264 (HIGH) EAC3
Video Resolution: 1920x960

1 Response to "[RR/NF] The Sympathizer S01E07 Endings Are Hard Arent They 1080p AMZN WEB-DL DDP5 1 Atmos H 264-FLUX (4.2GB)"
05/30/24
11:48:39
ReadyPlayerOne

Thank You

Please Login to post a comment.
If you don't have any account, please Register.
  • Subscribe my Feeds
  • Facebook
Encoding Queue:  x264  x265

Latest Episodes

Popular Movies and TV Shows

  • Mayor of Kingstown
  • Billy the Kid
  • Stars and Roses
  • Concrete Utopia
  • Gemma & Gorka: Life Behind the Lens
  • Love Island
  • Licence to Kill
  • Kung Fu Hustle
  • Look to the Light
  • On Patrol: Live
  • Doctor Climax
  • The Bold and the Beautiful
  • The Loud House
  • Welcome to Wrexham
  • Vice News Presents: Mass Shooting America
  • There's Something About Mary
  • My Sexual Abuse: The Sitcom
  • WWE NXT
  • Catfish: The TV Show
  • Walker
  • Enter the Clones of Bruce
  • Immaculate
  • Inside Out 2
  • The Daily Show
  • Survivor

Recent Comments

Archives