Sign Up   |   Sign In  
Criminal MindsBad DinosaursCaptivating the KingBirdemic 2: The ResurrectionKim's VideoThe Loud HouseThe BoysThe ChiI Saw the TV GlowSpecies IIThe GrabWWE NXTThe Bold and the BeautifulWalkerUltraman: RisingHannah Einbinder: Everything Must GoMax Dugan ReturnsSistasWWE RawEvilBratsMower MinionsNotas sobre un veranoThe Daily ShowSurvivor

Announcements

05/30

2024

1

Comments

The Sympathizer S01E07 Endings Are Hard Arent They 720p AMZN WEB-DL DDP5 1 Atmos H 264-FLUX
[RR/NF/CU]
Size: 1.8GB mkv H264 (HIGH) / EAC3  HD  1280x640

The Sympathizer
File Information
[img]http://lookpic.com/cdn/i2/t/0530202409494254-1.jpg[/img]
[img]http://lookpic.com/cdn/i2/t/0530202409494254-2.jpg[/img]
[img]http://lookpic.com/cdn/i2/t/0530202409494254-3.jpg[/img]

General
Unique ID                                : 25710480766357212360119396497060865838 (0x1357A89218A432010FD39E1EB8DD272E)
Complete name                            : The Sympathizer S01E07 Endings Are Hard Arent They 720p AMZN WEB-DL DDP5 1 Atmos H 264-FLUX.mkv
Format                                   : Matroska
Format version                           : Version 4
File size                                : 1.84 GiB
Duration                                 : 59 min 43 s
Overall bit rate                         : 4 421 kb/s
Frame rate                               : 23.976 FPS
Writing application                      : mkvmerge v79.0 ('Funeral Pyres') 64-bit
Writing library                          : libebml v1.4.4 + libmatroska v1.7.1

Video
ID                                       : 1
Format                                   : AVC
Format/Info                              : Advanced Video Codec
Format profile                           : High@L3.1
Format settings                          : CABAC / 4 Ref Frames
Format settings, CABAC                   : Yes
Format settings, Reference frames        : 4 frames
Codec ID                                 : V_MPEG4/ISO/AVC
Duration                                 : 59 min 43 s
Bit rate mode                            : Constant
Bit rate                                 : 3 651 kb/s
Nominal bit rate                         : 4 000 kb/s
Width                                    : 1 280 pixels
Height                                   : 640 pixels
Display aspect ratio                     : 2.000
Frame rate mode                          : Constant
Frame rate                               : 23.976 (24000/1001) FPS
Color space                              : YUV
Chroma subsampling                       : 4:2:0
Bit depth                                : 8 bits
Scan type                                : Progressive
Bits/(Pixel*Frame)                       : 0.186
Stream size                              : 1.52 GiB (83%)
Language                                 : English (US)
Default                                  : Yes
Forced                                   : No
Color range                              : Limited
Color primaries                          : BT.709
Transfer characteristics                 : BT.709
Matrix coefficients                      : BT.709

Audio
ID                                       : 2
Format                                   : E-AC-3 JOC
Format/Info                              : Enhanced AC-3 with Joint Object Coding
Commercial name                          : Dolby Digital Plus with Dolby Atmos
Codec ID                                 : A_EAC3
Duration                                 : 59 min 43 s
Bit rate mode                            : Constant
Bit rate                                 : 768 kb/s
Channel(s)                               : 6 channels
Channel layout                           : L R C LFE Ls Rs
Sampling rate                            : 48.0 kHz
Frame rate                               : 31.250 FPS (1536 SPF)
Compression mode                         : Lossy
Delay relative to video                  : 11 ms
Stream size                              : 328 MiB (17%)
Language                                 : English (US)
Service kind                             : Complete Main
Default                                  : Yes
Forced                                   : No
Complexity index                         : 16
Number of dynamic objects                : 15
Bed channel count                        : 1 channel
Bed channel configuration                : LFE

Text #1
ID                                       : 3
Format                                   : UTF-8
Codec ID                                 : S_TEXT/UTF8
Codec ID/Info                            : UTF-8 Plain Text
Duration                                 : 56 min 18 s
Bit rate                                 : 9 b/s
Frame rate                               : 0.033 FPS
Count of elements                        : 111
Stream size                              : 4.08 KiB (0%)
Language                                 : English (US)
Default                                  : No
Forced                                   : No

Text #2
ID                                       : 4
Format                                   : UTF-8
Codec ID                                 : S_TEXT/UTF8
Codec ID/Info                            : UTF-8 Plain Text
Duration                                 : 59 min 33 s
Bit rate                                 : 19 b/s
Frame rate                               : 0.099 FPS
Count of elements                        : 355
Stream size                              : 8.69 KiB (0%)
Title                                    : SDH
Language                                 : English (US)
Default                                  : No
Forced                                   : No

Text #3
ID                                       : 5
Format                                   : UTF-8
Codec ID                                 : S_TEXT/UTF8
Codec ID/Info                            : UTF-8 Plain Text
Duration                                 : 59 min 15 s
Bit rate                                 : 46 b/s
Frame rate                               : 0.165 FPS
Count of elements                        : 587
Stream size                              : 20.2 KiB (0%)
Title                                    : Latin American
Language                                 : Spanish (Latin America)
Default                                  : No
Forced                                   : No

Text #4
ID                                       : 6
Format                                   : UTF-8
Codec ID                                 : S_TEXT/UTF8
Codec ID/Info                            : UTF-8 Plain Text
Duration                                 : 59 min 15 s
Bit rate                                 : 45 b/s
Frame rate                               : 0.165 FPS
Count of elements                        : 586
Stream size                              : 19.6 KiB (0%)
Title                                    : Brazilian
Language                                 : Portuguese (BR)
Default                                  : No
Forced                                   : No

Menu
00:57:27.019                             : en:Credits



Download
File Container: MKV
Video/Audio Codec: H264 (HIGH) EAC3
Video Resolution: 1280x640

1 Response to "[RR/NF/CU] The Sympathizer S01E07 Endings Are Hard Arent They 720p AMZN WEB-DL DDP5 1 Atmos H 264-FLUX (1.8GB)"
05/30/24
11:46:55
ReadyPlayerOne

Thank You

Please Login to post a comment.
If you don't have any account, please Register.
  • Subscribe my Feeds
  • Facebook
Encoding Queue:  x264  x265

Latest Episodes

Popular Movies and TV Shows

  • Criminal Minds
  • Bad Dinosaurs
  • Captivating the King
  • Birdemic 2: The Resurrection
  • Kim's Video
  • The Loud House
  • The Boys
  • The Chi
  • I Saw the TV Glow
  • Species II
  • The Grab
  • WWE NXT
  • The Bold and the Beautiful
  • Walker
  • Ultraman: Rising
  • Hannah Einbinder: Everything Must Go
  • Max Dugan Returns
  • Sistas
  • WWE Raw
  • Evil
  • Brats
  • Mower Minions
  • Notas sobre un verano
  • The Daily Show
  • Survivor

Recent Comments

  • waanaabe: Does anyone have season 1 and 2 of "The Mire"? here is just season 3 of this polish series...
  • Rmed:

    Links are dead. Re-upload please?

  • mentalityx:

    Rad bloke.

  • mentalityx:

    Thx bloke.

  • Diggety247:

    BrokenHanded, Try using a DL manager.

  • BrokenHanded: clicknupload does not seem to work for past few days. keep getting an error saying the site is sendi...
  • Bud: Helps if you actually add these to the "Late Night with Seth Meyers" page too...
  • rambaldi70:

    Hy! Right now, my download speed : 1 Mb/s
    this is ok?
    Tx answer

  • Cinque_Persson: At 183 MB this had to be something completely different. In fact it's just the main actors commentin...

Archives