Sign Up   |   Sign In  
The PrimevalsHow Music Got FreeViral HitAll RiseNinja TerminatorBartender: Glass of GodThe AcolyteDark MatterPresumed InnocentMysteries of the Terracotta WarriorsYou, Me, and that Mountain RetreatSaving Private RyanWWE NXTThe Big Door PrizeTryingLost SoulzThe Beast in the JunglePet SemataryThe Loud HouseAcapulcoThe Bold and the BeautifulWild Eyed and WickedPeggy Sue Got MarriedFrom Russia with LoveThe Daily Show

Announcements

05/14

2024

No

Comments

The Veil S01E04 Declassified 720p DSNP WEB-DL DD 5 1 H 264-playWEB
[RR/NF/CU]
Size: 938MB mkv H264 (HIGH) / EAC3  HD  1280x720

The Veil
File Information
[img]http://lookpic.com/cdn/i2/t/0514202419444633-1.jpg[/img]
[img]http://lookpic.com/cdn/i2/t/0514202419444633-2.jpg[/img]
[img]http://lookpic.com/cdn/i2/t/0514202419444633-3.jpg[/img]

General
Unique ID                                : 13083377703468748003799102394838753412 (0x9D7C452DB29E74855599D580D332084)
Complete name                            : The Veil S01E04 Declassified 720p DSNP WEB-DL DD 5 1 H 264-playWEB.mkv
Format                                   : Matroska
Format version                           : Version 4
File size                                : 938 MiB
Duration                                 : 41 min 14 s
Overall bit rate mode                    : Variable
Overall bit rate                         : 3 179 kb/s
Frame rate                               : 23.976 FPS
Writing application                      : mkvmerge v84.0 ('Sleeper') 64-bit
Writing library                          : libebml v1.4.5 + libmatroska v1.7.1

Video
ID                                       : 1
Format                                   : AVC
Format/Info                              : Advanced Video Codec
Format profile                           : High@L3.1
Format settings                          : CABAC / 4 Ref Frames
Format settings, CABAC                   : Yes
Format settings, Reference frames        : 4 frames
Codec ID                                 : V_MPEG4/ISO/AVC
Duration                                 : 41 min 14 s
Bit rate mode                            : Variable
Bit rate                                 : 2 919 kb/s
Maximum bit rate                         : 6 375 kb/s
Width                                    : 1 280 pixels
Height                                   : 720 pixels
Display aspect ratio                     : 16:9
Frame rate mode                          : Constant
Frame rate                               : 23.976 (24000/1001) FPS
Color space                              : YUV
Chroma subsampling                       : 4:2:0
Bit depth                                : 8 bits
Scan type                                : Progressive
Bits/(Pixel*Frame)                       : 0.132
Time code of first frame                 : 00:00:00:0000000000
Stream size                              : 861 MiB (92%)
Default                                  : Yes
Forced                                   : No
Color range                              : Limited
Color primaries                          : BT.709
Transfer characteristics                 : BT.709
Matrix coefficients                      : BT.709

Audio
ID                                       : 2
Format                                   : E-AC-3
Format/Info                              : Enhanced AC-3
Commercial name                          : Dolby Digital Plus
Codec ID                                 : A_EAC3
Duration                                 : 41 min 14 s
Bit rate mode                            : Constant
Bit rate                                 : 256 kb/s
Channel(s)                               : 6 channels
Channel layout                           : L R C LFE Ls Rs
Sampling rate                            : 48.0 kHz
Frame rate                               : 31.250 FPS (1536 SPF)
Compression mode                         : Lossy
Stream size                              : 75.5 MiB (8%)
Language                                 : English
Service kind                             : Complete Main
Default                                  : Yes
Forced                                   : No

Text #1
ID                                       : 3
Format                                   : UTF-8
Codec ID                                 : S_TEXT/UTF8
Codec ID/Info                            : UTF-8 Plain Text
Duration                                 : 40 min 47 s
Bit rate                                 : 41 b/s
Frame rate                               : 0.148 FPS
Count of elements                        : 362
Stream size                              : 12.4 KiB (0%)
Language                                 : Czech
Default                                  : No
Forced                                   : No

Text #2
ID                                       : 4
Format                                   : UTF-8
Codec ID                                 : S_TEXT/UTF8
Codec ID/Info                            : UTF-8 Plain Text
Duration                                 : 40 min 47 s
Bit rate                                 : 43 b/s
Frame rate                               : 0.135 FPS
Count of elements                        : 330
Stream size                              : 13.0 KiB (0%)
Language                                 : Danish
Default                                  : No
Forced                                   : No

Text #3
ID                                       : 5
Format                                   : UTF-8
Codec ID                                 : S_TEXT/UTF8
Codec ID/Info                            : UTF-8 Plain Text
Duration                                 : 40 min 47 s
Bit rate                                 : 47 b/s
Frame rate                               : 0.152 FPS
Count of elements                        : 372
Stream size                              : 14.0 KiB (0%)
Language                                 : German
Default                                  : No
Forced                                   : No

Text #4
ID                                       : 6
Format                                   : UTF-8
Codec ID                                 : S_TEXT/UTF8
Codec ID/Info                            : UTF-8 Plain Text
Duration                                 : 40 min 47 s
Bit rate                                 : 73 b/s
Frame rate                               : 0.155 FPS
Count of elements                        : 379
Stream size                              : 21.9 KiB (0%)
Language                                 : Greek
Default                                  : No
Forced                                   : No

Text #5
ID                                       : 7
Format                                   : UTF-8
Codec ID                                 : S_TEXT/UTF8
Codec ID/Info                            : UTF-8 Plain Text
Duration                                 : 37 min 2 s
Bit rate                                 : 53 b/s
Frame rate                               : 0.181 FPS
Count of elements                        : 403
Stream size                              : 14.6 KiB (0%)
Language                                 : English
Default                                  : No
Forced                                   : No

Text #6
ID                                       : 8
Format                                   : UTF-8
Codec ID                                 : S_TEXT/UTF8
Codec ID/Info                            : UTF-8 Plain Text
Duration                                 : 39 min 17 s
Bit rate                                 : 57 b/s
Frame rate                               : 0.200 FPS
Count of elements                        : 472
Stream size                              : 16.5 KiB (0%)
Title                                    : SDH
Language                                 : English
Default                                  : No
Forced                                   : No

Text #7
ID                                       : 9
Format                                   : UTF-8
Codec ID                                 : S_TEXT/UTF8
Codec ID/Info                            : UTF-8 Plain Text
Duration                                 : 40 min 47 s
Bit rate                                 : 43 b/s
Frame rate                               : 0.147 FPS
Count of elements                        : 360
Stream size                              : 12.9 KiB (0%)
Title                                    : Latin American
Language                                 : Spanish
Default                                  : No
Forced                                   : No

Text #8
ID                                       : 10
Format                                   : UTF-8
Codec ID                                 : S_TEXT/UTF8
Codec ID/Info                            : UTF-8 Plain Text
Duration                                 : 40 min 47 s
Bit rate                                 : 42 b/s
Frame rate                               : 0.153 FPS
Count of elements                        : 375
Stream size                              : 12.8 KiB (0%)
Title                                    : European
Language                                 : Spanish
Default                                  : No
Forced                                   : No

Text #9
ID                                       : 11
Format                                   : UTF-8
Codec ID                                 : S_TEXT/UTF8
Codec ID/Info                            : UTF-8 Plain Text
Duration                                 : 40 min 47 s
Bit rate                                 : 45 b/s
Frame rate                               : 0.145 FPS
Count of elements                        : 356
Stream size                              : 13.5 KiB (0%)
Language                                 : Finnish
Default                                  : No
Forced                                   : No

Text #10
ID                                       : 12
Format                                   : UTF-8
Codec ID                                 : S_TEXT/UTF8
Codec ID/Info                            : UTF-8 Plain Text
Duration                                 : 40 min 47 s
Bit rate                                 : 33 b/s
Frame rate                               : 0.111 FPS
Count of elements                        : 271
Stream size                              : 9.98 KiB (0%)
Title                                    : European
Language                                 : French
Default                                  : No
Forced                                   : No

Text #11
ID                                       : 13
Format                                   : UTF-8
Codec ID                                 : S_TEXT/UTF8
Codec ID/Info                            : UTF-8 Plain Text
Duration                                 : 40 min 47 s
Bit rate                                 : 43 b/s
Frame rate                               : 0.151 FPS
Count of elements                        : 370
Stream size                              : 12.9 KiB (0%)
Language                                 : Hungarian
Default                                  : No
Forced                                   : No

Text #12
ID                                       : 14
Format                                   : UTF-8
Codec ID                                 : S_TEXT/UTF8
Codec ID/Info                            : UTF-8 Plain Text
Duration                                 : 40 min 47 s
Bit rate                                 : 43 b/s
Frame rate                               : 0.157 FPS
Count of elements                        : 384
Stream size                              : 13.1 KiB (0%)
Language                                 : Italian
Default                                  : No
Forced                                   : No

Text #13
ID                                       : 15
Format                                   : UTF-8
Codec ID                                 : S_TEXT/UTF8
Codec ID/Info                            : UTF-8 Plain Text
Duration                                 : 40 min 47 s
Bit rate                                 : 37 b/s
Frame rate                               : 0.152 FPS
Count of elements                        : 371
Stream size                              : 11.3 KiB (0%)
Language                                 : Japanese
Default                                  : No
Forced                                   : No

Text #14
ID                                       : 16
Format                                   : UTF-8
Codec ID                                 : S_TEXT/UTF8
Codec ID/Info                            : UTF-8 Plain Text
Duration                                 : 40 min 47 s
Bit rate                                 : 49 b/s
Frame rate                               : 0.161 FPS
Count of elements                        : 393
Stream size                              : 14.7 KiB (0%)
Language                                 : Korean
Default                                  : No
Forced                                   : No

Text #15
ID                                       : 17
Format                                   : UTF-8
Codec ID                                 : S_TEXT/UTF8
Codec ID/Info                            : UTF-8 Plain Text
Duration                                 : 40 min 47 s
Bit rate                                 : 39 b/s
Frame rate                               : 0.131 FPS
Count of elements                        : 320
Stream size                              : 11.7 KiB (0%)
Language                                 : Dutch
Default                                  : No
Forced                                   : No

Text #16
ID                                       : 18
Format                                   : UTF-8
Codec ID                                 : S_TEXT/UTF8
Codec ID/Info                            : UTF-8 Plain Text
Duration                                 : 40 min 47 s
Bit rate                                 : 42 b/s
Frame rate                               : 0.143 FPS
Count of elements                        : 349
Stream size                              : 12.7 KiB (0%)
Language                                 : Norwegian
Default                                  : No
Forced                                   : No

Text #17
ID                                       : 19
Format                                   : UTF-8
Codec ID                                 : S_TEXT/UTF8
Codec ID/Info                            : UTF-8 Plain Text
Duration                                 : 40 min 47 s
Bit rate                                 : 41 b/s
Frame rate                               : 0.158 FPS
Count of elements                        : 386
Stream size                              : 12.5 KiB (0%)
Language                                 : Polish
Default                                  : No
Forced                                   : No

Text #18
ID                                       : 20
Format                                   : UTF-8
Codec ID                                 : S_TEXT/UTF8
Codec ID/Info                            : UTF-8 Plain Text
Duration                                 : 40 min 47 s
Bit rate                                 : 43 b/s
Frame rate                               : 0.156 FPS
Count of elements                        : 382
Stream size                              : 12.9 KiB (0%)
Title                                    : Brazilian
Language                                 : Portuguese
Default                                  : No
Forced                                   : No

Text #19
ID                                       : 21
Format                                   : UTF-8
Codec ID                                 : S_TEXT/UTF8
Codec ID/Info                            : UTF-8 Plain Text
Duration                                 : 40 min 47 s
Bit rate                                 : 46 b/s
Frame rate                               : 0.160 FPS
Count of elements                        : 391
Stream size                              : 13.9 KiB (0%)
Title                                    : European
Language                                 : Portuguese
Default                                  : No
Forced                                   : No

Text #20
ID                                       : 22
Format                                   : UTF-8
Codec ID                                 : S_TEXT/UTF8
Codec ID/Info                            : UTF-8 Plain Text
Duration                                 : 40 min 47 s
Bit rate                                 : 43 b/s
Frame rate                               : 0.127 FPS
Count of elements                        : 312
Stream size                              : 13.0 KiB (0%)
Language                                 : Romanian
Default                                  : No
Forced                                   : No

Text #21
ID                                       : 23
Format                                   : UTF-8
Codec ID                                 : S_TEXT/UTF8
Codec ID/Info                            : UTF-8 Plain Text
Duration                                 : 40 min 47 s
Bit rate                                 : 43 b/s
Frame rate                               : 0.159 FPS
Count of elements                        : 390
Stream size                              : 12.9 KiB (0%)
Language                                 : Slovak
Default                                  : No
Forced                                   : No

Text #22
ID                                       : 24
Format                                   : UTF-8
Codec ID                                 : S_TEXT/UTF8
Codec ID/Info                            : UTF-8 Plain Text
Duration                                 : 40 min 47 s
Bit rate                                 : 44 b/s
Frame rate                               : 0.136 FPS
Count of elements                        : 333
Stream size                              : 13.1 KiB (0%)
Language                                 : Swedish
Default                                  : No
Forced                                   : No

Text #23
ID                                       : 25
Format                                   : UTF-8
Codec ID                                 : S_TEXT/UTF8
Codec ID/Info                            : UTF-8 Plain Text
Duration                                 : 40 min 47 s
Bit rate                                 : 45 b/s
Frame rate                               : 0.154 FPS
Count of elements                        : 378
Stream size                              : 13.6 KiB (0%)
Language                                 : Turkish
Default                                  : No
Forced                                   : No

Text #24
ID                                       : 26
Format                                   : UTF-8
Codec ID                                 : S_TEXT/UTF8
Codec ID/Info                            : UTF-8 Plain Text
Duration                                 : 40 min 47 s
Bit rate                                 : 42 b/s
Frame rate                               : 0.160 FPS
Count of elements                        : 392
Stream size                              : 12.7 KiB (0%)
Title                                    : Traditional
Language                                 : Chinese
Default                                  : No
Forced                                   : No

Menu
00:00:09.968                             : en:Recap
00:01:38.223                             : en:Scene 1
00:06:21.882                             : en:Intro
00:06:31.767                             : en:Scene 2
00:40:23.590                             : en:Credits



Download
File Container: MKV
Video/Audio Codec: H264 (HIGH) EAC3
Video Resolution: 1280x720
Please Login to post a comment.
If you don't have any account, please Register.
  • Subscribe my Feeds
  • Facebook
Encoding Queue:  x264  x265

Latest Episodes

Popular Movies and TV Shows

  • The Primevals
  • How Music Got Free
  • Viral Hit
  • All Rise
  • Ninja Terminator
  • Bartender: Glass of God
  • The Acolyte
  • Dark Matter
  • Presumed Innocent
  • Mysteries of the Terracotta Warriors
  • You, Me, and that Mountain Retreat
  • Saving Private Ryan
  • WWE NXT
  • The Big Door Prize
  • Trying
  • Lost Soulz
  • The Beast in the Jungle
  • Pet Sematary
  • The Loud House
  • Acapulco
  • The Bold and the Beautiful
  • Wild Eyed and Wicked
  • Peggy Sue Got Married
  • From Russia with Love
  • The Daily Show

Recent Comments

  • KissclTum: [url=https://kisstom.ru/prices]имплант с коронкой цена кисс [/url] Tegs: и...
  • Diggety247:

    BrokenHanded, Try using a DL manager.

  • BrokenHanded: clicknupload does not seem to work for past few days. keep getting an error saying the site is sendi...
  • Bud: Helps if you actually add these to the "Late Night with Seth Meyers" page too...
  • rambaldi70:

    Hy! Right now, my download speed : 1 Mb/s
    this is ok?
    Tx answer

  • Cinque_Persson: At 183 MB this had to be something completely different. In fact it's just the main actors commentin...
  • meyat74:

    my bad, should be full season

  • Oscar2:

    Halo "is" a good show

  • MeH:

    "one of the most impressive scenes"

  • rappet:

    Unfortunately, episode 2 not playing and episode 3 half missing (only 37 minutes long).

  • Anovani:

    Nice 1

  • shark:

    Will there be a sequel?

  • sjors:

    This release in in Russian with Russian subs. No English.

  • RapidRabbit98: I'll ask again Forged in Fire Series 11 episode 1 - anyone have it?

Archives