Sign Up   |   Sign In  
NCIS: Hawai'iColumbia: The Final FlightBlue LightsThe 100th: Billy Joel at Madison Square Garden - The Greatest Arena Run of All TimeKill Her GoatsDune: Part TwoKiller Fortune TellerThe GentlemenBob Hearts AbisholaFamily GuyMoney TalksHundreds of BeaversThe SympathizerTrackerThe Great NorthModel HouseAbba: How They Won EurovisionKurt Cobain: Moments That Shook MusicWhen Calls the HeartSullivan's CrossingBeacon 23The ChannelThe Batman vs. DraculaThere's Still TomorrowFallout

Announcements

02/23

2024

No

Comments

The Woman in the Wall S01E01 Back to Life 1080p AMZN WEB-DL DDP5 1 H 264-NTb
[RR/NF]
Size: 3.7GB mkv H264 (HIGH) / EAC3  HD  1920x872

The Woman in the Wall
File Information
[img]http://lookpic.com/cdn/i2/t/0223202412354712-1.jpg[/img]
[img]http://lookpic.com/cdn/i2/t/0223202412354712-2.jpg[/img]
[img]http://lookpic.com/cdn/i2/t/0223202412354712-3.jpg[/img]

General
Unique ID                                : 95915373124002129767933560646734639673 (0x4828A101134C4A1468FB6AC6DA22F239)
Complete name                            : The.Woman.in.the.Wall.S01E01.Back.to.Life.1080p.AMZN.WEB-DL.DDP5.1.H.264-NTb.mkv
Format                                   : Matroska
Format version                           : Version 4
File size                                : 3.71 GiB
Duration                                 : 53 min 25 s
Overall bit rate                         : 9 937 kb/s
Frame rate                               : 25.000 FPS
Writing application                      : mkvmerge v81.0 ('Milliontown') 64-bit
Writing library                          : libebml v1.4.4 + libmatroska v1.7.1

Video
ID                                       : 1
Format                                   : AVC
Format/Info                              : Advanced Video Codec
Format profile                           : High@L4
Format settings                          : CABAC / 4 Ref Frames
Format settings, CABAC                   : Yes
Format settings, Reference frames        : 4 frames
Codec ID                                 : V_MPEG4/ISO/AVC
Duration                                 : 53 min 25 s
Bit rate mode                            : Constant
Bit rate                                 : 9 294 kb/s
Nominal bit rate                         : 10 000 kb/s
Width                                    : 1 920 pixels
Height                                   : 872 pixels
Display aspect ratio                     : 2.2:1
Frame rate mode                          : Constant
Frame rate                               : 25.000 FPS
Color space                              : YUV
Chroma subsampling                       : 4:2:0
Bit depth                                : 8 bits
Scan type                                : Progressive
Bits/(Pixel*Frame)                       : 0.222
Stream size                              : 3.47 GiB (94%)
Default                                  : Yes
Forced                                   : No
Color range                              : Limited
Color primaries                          : BT.709
Transfer characteristics                 : BT.709
Matrix coefficients                      : BT.709

Audio
ID                                       : 2
Format                                   : E-AC-3
Format/Info                              : Enhanced AC-3
Commercial name                          : Dolby Digital Plus
Codec ID                                 : A_EAC3
Duration                                 : 53 min 25 s
Bit rate mode                            : Constant
Bit rate                                 : 640 kb/s
Channel(s)                               : 6 channels
Channel layout                           : L R C LFE Ls Rs
Sampling rate                            : 48.0 kHz
Frame rate                               : 31.250 FPS (1536 SPF)
Compression mode                         : Lossy
Stream size                              : 245 MiB (6%)
Language                                 : English (US)
Service kind                             : Complete Main
Default                                  : Yes
Forced                                   : No

Text #1
ID                                       : 3
Format                                   : UTF-8
Codec ID                                 : S_TEXT/UTF8
Codec ID/Info                            : UTF-8 Plain Text
Duration                                 : 51 min 35 s
Bit rate                                 : 46 b/s
Frame rate                               : 0.194 FPS
Count of elements                        : 600
Stream size                              : 17.5 KiB (0%)
Language                                 : English (US)
Default                                  : No
Forced                                   : No

Text #2
ID                                       : 4
Format                                   : UTF-8
Codec ID                                 : S_TEXT/UTF8
Codec ID/Info                            : UTF-8 Plain Text
Duration                                 : 52 min 22 s
Bit rate                                 : 56 b/s
Frame rate                               : 0.234 FPS
Count of elements                        : 736
Stream size                              : 21.8 KiB (0%)
Title                                    : SDH
Language                                 : English (US)
Default                                  : No
Forced                                   : No



Download
File Container: MKV
Video/Audio Codec: H264 (HIGH) EAC3
Video Resolution: 1920x872
Please Login to post a comment.
If you don't have any account, please Register.
  • Subscribe my Feeds
  • Facebook
Encoding Queue:  x264  x265

Latest Episodes

Popular Movies and TV Shows

  • NCIS: Hawai'i
  • Columbia: The Final Flight
  • Blue Lights
  • The 100th: Billy Joel at Madison Square Garden - The Greatest Arena Run of All Time
  • Kill Her Goats
  • Dune: Part Two
  • Killer Fortune Teller
  • The Gentlemen
  • Bob Hearts Abishola
  • Family Guy
  • Money Talks
  • Hundreds of Beavers
  • The Sympathizer
  • Tracker
  • The Great North
  • Model House
  • Abba: How They Won Eurovision
  • Kurt Cobain: Moments That Shook Music
  • When Calls the Heart
  • Sullivan's Crossing
  • Beacon 23
  • The Channel
  • The Batman vs. Dracula
  • There's Still Tomorrow
  • Fallout

Recent Comments

  • Bud:

    Are you ever going to put up Thursday's episode with Liev Schreiber?

  • alp-engin:

    When will that maintenance be over? Please...

  • mentalityx:

    Rad bloke

  • DownloadHostInspector:

    so far these RMTeam uploads always have a working link. DownloadHostInspector approved!

  • DownloadHostInspector:

    ah yes, this upload has a host that works. clicknupload. DownloadHostInspector approved!

  • DownloadHostInspector: Why are all the download hosts trash? none of them let you download it
  • Qua4ratic:

    clicknupload link plz

  • ppoo:

    Please, can you add "Real Time with Bill Maher S22E11" ??

  • theahtisham:

    Kindly upload Ep. 3 and 4 as well.

Archives