Sign Up   |   Sign In  
ShogunImmaculateSweet DreamsJimmy Carr: Natural Born KillerFriends Like HerGod Friended MeNCISNCIS: Hawai'iProject DorothyThe NeighborhoodThe Deadly SwarmSpring LakesThe SympathizerBob Hearts AbisholaAll AmericanDune: Part TwoThe 100th: Billy Joel at Madison Square Garden - The Greatest Arena Run of All TimeThe Crow: SalvationTrackerFamily GuyThe Bold and the BeautifulHundreds of BeaversAbba: How They Won EurovisionModel HouseFallout

Announcements

02/16

2024

No

Comments

Three Women S01E01 three women 1080p STAN WEB-DL DDP5 1 H 264-NTb
[RR/NF/CU]
Size: 1.5GB mkv H264 (HIGH) / EAC3  HD  1920x1080

Three Women
File Information
[img]http://lookpic.com/cdn/i2/t/0216202411350327-1.jpg[/img]
[img]http://lookpic.com/cdn/i2/t/0216202411350327-2.jpg[/img]
[img]http://lookpic.com/cdn/i2/t/0216202411350327-3.jpg[/img]

General
Unique ID                                : 305429068886335246273173426674754485397 (0xE5C77FBC3323ACDD6E3F36295DB57C95)
Complete name                            : Three.Women.S01E01.three.women.1080p.STAN.WEB-DL.DDP5.1.H.264-NTb.mkv
Format                                   : Matroska
Format version                           : Version 4
File size                                : 1.48 GiB
Duration                                 : 59 min 19 s
Overall bit rate                         : 3 561 kb/s
Frame rate                               : 23.976 FPS
Writing application                      : mkvmerge v81.0 ('Milliontown') 64-bit
Writing library                          : libebml v1.4.4 + libmatroska v1.7.1

Video
ID                                       : 1
Format                                   : AVC
Format/Info                              : Advanced Video Codec
Format profile                           : High@L4
Format settings                          : CABAC / 4 Ref Frames
Format settings, CABAC                   : Yes
Format settings, Reference frames        : 4 frames
Codec ID                                 : V_MPEG4/ISO/AVC
Duration                                 : 59 min 19 s
Bit rate                                 : 3 175 kb/s
Width                                    : 1 920 pixels
Height                                   : 1 080 pixels
Display aspect ratio                     : 16:9
Frame rate mode                          : Constant
Frame rate                               : 23.976 (24000/1001) FPS
Color space                              : YUV
Chroma subsampling                       : 4:2:0
Bit depth                                : 8 bits
Scan type                                : Progressive
Bits/(Pixel*Frame)                       : 0.064
Stream size                              : 1.32 GiB (89%)
Default                                  : Yes
Forced                                   : No
Color range                              : Limited
Color primaries                          : BT.709
Transfer characteristics                 : BT.709
Matrix coefficients                      : BT.709

Audio
ID                                       : 2
Format                                   : E-AC-3
Format/Info                              : Enhanced AC-3
Commercial name                          : Dolby Digital Plus
Codec ID                                 : A_EAC3
Duration                                 : 59 min 19 s
Bit rate mode                            : Constant
Bit rate                                 : 384 kb/s
Channel(s)                               : 6 channels
Channel layout                           : L R C LFE Ls Rs
Sampling rate                            : 48.0 kHz
Frame rate                               : 31.250 FPS (1536 SPF)
Compression mode                         : Lossy
Stream size                              : 163 MiB (11%)
Language                                 : English
Service kind                             : Complete Main
Default                                  : Yes
Forced                                   : No

Text #1
ID                                       : 3
Format                                   : UTF-8
Codec ID                                 : S_TEXT/UTF8
Codec ID/Info                            : UTF-8 Plain Text
Duration                                 : 57 min 37 s
Bit rate                                 : 66 b/s
Frame rate                               : 0.286 FPS
Count of elements                        : 988
Stream size                              : 27.9 KiB (0%)
Language                                 : English
Default                                  : No
Forced                                   : No

Text #2
ID                                       : 4
Format                                   : UTF-8
Codec ID                                 : S_TEXT/UTF8
Codec ID/Info                            : UTF-8 Plain Text
Duration                                 : 58 min 1 s
Bit rate                                 : 73 b/s
Frame rate                               : 0.323 FPS
Count of elements                        : 1126
Stream size                              : 31.3 KiB (0%)
Title                                    : SDH
Language                                 : English
Default                                  : No
Forced                                   : No

Menu
00:00:00.000                             : en:Chapter 1
00:58:04.000                             : en:Credits



Download
File Container: MKV
Video/Audio Codec: H264 (HIGH) EAC3
Video Resolution: 1920x1080
Please Login to post a comment.
If you don't have any account, please Register.
  • Subscribe my Feeds
  • Facebook
Encoding Queue:  x264  x265

Latest Episodes

Popular Movies and TV Shows

  • Shogun
  • Immaculate
  • Sweet Dreams
  • Jimmy Carr: Natural Born Killer
  • Friends Like Her
  • God Friended Me
  • NCIS
  • NCIS: Hawai'i
  • Project Dorothy
  • The Neighborhood
  • The Deadly Swarm
  • Spring Lakes
  • The Sympathizer
  • Bob Hearts Abishola
  • All American
  • Dune: Part Two
  • The 100th: Billy Joel at Madison Square Garden - The Greatest Arena Run of All Time
  • The Crow: Salvation
  • Tracker
  • Family Guy
  • The Bold and the Beautiful
  • Hundreds of Beavers
  • Abba: How They Won Eurovision
  • Model House
  • Fallout

Recent Comments

  • Rake:

    Loads of "Server is under maintenance" with RR theese days...

  • kellym2: Why am I getting "Server is in maintenance mode" on some episodes of a series and not on o...
  • Bud:

    Are you ever going to put up Thursday's episode with Liev Schreiber?

  • alp-engin:

    When will that maintenance be over? Please...

  • mentalityx:

    Rad bloke

  • DownloadHostInspector:

    so far these RMTeam uploads always have a working link. DownloadHostInspector approved!

  • DownloadHostInspector:

    ah yes, this upload has a host that works. clicknupload. DownloadHostInspector approved!

  • DownloadHostInspector: Why are all the download hosts trash? none of them let you download it
  • Qua4ratic:

    clicknupload link plz

  • ppoo:

    Please, can you add "Real Time with Bill Maher S22E11" ??

Archives