Sign Up   |   Sign In  
Chicago P.D.Chicago FireAbbott ElementaryA Bullet for JoeyNight SwimThe PianistMoonedWild CardsStar Wars: The Bad BatchChicago MedSlaughterhouse Slumber PartyA Couch in New YorkConstellationThe RookieThe Good DoctorPink Floyd: The Dark Side of the Moon (50th Anniversary Box Set)RuthlessLouis C.K.: Back to the GardenWill TrentFBIQuantum LeapThe Mental StateMean GirlsTurn Me On, Dammit!Monsieur Spade

Announcements

02/08

2024

1

Comments

Tokyo Vice S02E01 Dont Ever Fking Miss 1080p AMZN WEB-DL DDP5 1 H 264-NTb
[RR/NF]
Size: 3.4GB mkv H264 (HIGH) / EAC3  HD  1920x960

Tokyo Vice
File Information
[img]http://lookpic.com/cdn/i2/t/0208202412391498-1.jpg[/img]
[img]http://lookpic.com/cdn/i2/t/0208202412391498-2.jpg[/img]
[img]http://lookpic.com/cdn/i2/t/0208202412391498-3.jpg[/img]

General
Unique ID                                : 301161273418928601149020043977563609083 (0xE2918D2C44AF3623BED8C0BEF56497FB)
Complete name                            : Tokyo.Vice.S02E01.Dont.Ever.Fking.Miss.1080p.AMZN.WEB-DL.DDP5.1.H.264-NTb.mkv
Format                                   : Matroska
Format version                           : Version 4
File size                                : 3.37 GiB
Duration                                 : 57 min 32 s
Overall bit rate                         : 8 375 kb/s
Frame rate                               : 23.976 FPS
Writing application                      : mkvmerge v81.0 ('Milliontown') 64-bit
Writing library                          : libebml v1.4.4 + libmatroska v1.7.1

Video
ID                                       : 1
Format                                   : AVC
Format/Info                              : Advanced Video Codec
Format profile                           : High@L4
Format settings                          : CABAC / 4 Ref Frames
Format settings, CABAC                   : Yes
Format settings, Reference frames        : 4 frames
Codec ID                                 : V_MPEG4/ISO/AVC
Duration                                 : 57 min 32 s
Bit rate mode                            : Constant
Bit rate                                 : 7 731 kb/s
Nominal bit rate                         : 10 000 kb/s
Width                                    : 1 920 pixels
Height                                   : 960 pixels
Display aspect ratio                     : 2.000
Frame rate mode                          : Constant
Frame rate                               : 23.976 (24000/1001) FPS
Color space                              : YUV
Chroma subsampling                       : 4:2:0
Bit depth                                : 8 bits
Scan type                                : Progressive
Bits/(Pixel*Frame)                       : 0.175
Stream size                              : 3.11 GiB (92%)
Default                                  : Yes
Forced                                   : No
Color range                              : Limited
Color primaries                          : BT.709
Transfer characteristics                 : BT.709
Matrix coefficients                      : BT.709

Audio
ID                                       : 2
Format                                   : E-AC-3 JOC
Format/Info                              : Enhanced AC-3 with Joint Object Coding
Commercial name                          : Dolby Digital Plus with Dolby Atmos
Codec ID                                 : A_EAC3
Duration                                 : 57 min 32 s
Bit rate mode                            : Constant
Bit rate                                 : 640 kb/s
Channel(s)                               : 6 channels
Channel layout                           : L R C LFE Ls Rs
Sampling rate                            : 48.0 kHz
Frame rate                               : 31.250 FPS (1536 SPF)
Compression mode                         : Lossy
Stream size                              : 263 MiB (8%)
Language                                 : English
Service kind                             : Complete Main
Default                                  : Yes
Forced                                   : No
Complexity index                         : 16
Number of dynamic objects                : 15
Bed channel count                        : 1 channel
Bed channel configuration                : LFE

Text #1
ID                                       : 3
Format                                   : UTF-8
Codec ID                                 : S_TEXT/UTF8
Codec ID/Info                            : UTF-8 Plain Text
Duration                                 : 53 min 31 s
Bit rate                                 : 44 b/s
Frame rate                               : 0.166 FPS
Count of elements                        : 534
Stream size                              : 17.5 KiB (0%)
Language                                 : English (US)
Default                                  : No
Forced                                   : No

Text #2
ID                                       : 4
Format                                   : UTF-8
Codec ID                                 : S_TEXT/UTF8
Codec ID/Info                            : UTF-8 Plain Text
Duration                                 : 56 min 24 s
Bit rate                                 : 30 b/s
Frame rate                               : 0.144 FPS
Count of elements                        : 488
Stream size                              : 12.5 KiB (0%)
Title                                    : SDH
Language                                 : English (US)
Default                                  : No
Forced                                   : No

Text #3
ID                                       : 5
Format                                   : UTF-8
Codec ID                                 : S_TEXT/UTF8
Codec ID/Info                            : UTF-8 Plain Text
Duration                                 : 56 min 7 s
Bit rate                                 : 71 b/s
Frame rate                               : 0.154 FPS
Count of elements                        : 519
Stream size                              : 29.6 KiB (0%)
Language                                 : Bulgarian (BG)
Default                                  : No
Forced                                   : No

Text #4
ID                                       : 6
Format                                   : UTF-8
Codec ID                                 : S_TEXT/UTF8
Codec ID/Info                            : UTF-8 Plain Text
Duration                                 : 56 min 3 s
Bit rate                                 : 39 b/s
Frame rate                               : 0.160 FPS
Count of elements                        : 538
Stream size                              : 16.1 KiB (0%)
Language                                 : Czech (CZ)
Default                                  : No
Forced                                   : No

Text #5
ID                                       : 7
Format                                   : UTF-8
Codec ID                                 : S_TEXT/UTF8
Codec ID/Info                            : UTF-8 Plain Text
Duration                                 : 53 min 54 s
Bit rate                                 : 44 b/s
Frame rate                               : 0.135 FPS
Count of elements                        : 438
Stream size                              : 17.4 KiB (0%)
Language                                 : Danish (DK)
Default                                  : No
Forced                                   : No

Text #6
ID                                       : 8
Format                                   : UTF-8
Codec ID                                 : S_TEXT/UTF8
Codec ID/Info                            : UTF-8 Plain Text
Duration                                 : 54 min 42 s
Bit rate                                 : 47 b/s
Frame rate                               : 0.161 FPS
Count of elements                        : 527
Stream size                              : 19.1 KiB (0%)
Title                                    : Spanish (Latin America)
Language                                 : Spanish (Latin America)
Default                                  : No
Forced                                   : No

Text #7
ID                                       : 9
Format                                   : UTF-8
Codec ID                                 : S_TEXT/UTF8
Codec ID/Info                            : UTF-8 Plain Text
Duration                                 : 53 min 31 s
Bit rate                                 : 46 b/s
Frame rate                               : 0.166 FPS
Count of elements                        : 533
Stream size                              : 18.2 KiB (0%)
Title                                    : Spanish (Spain)
Language                                 : Spanish (ES)
Default                                  : No
Forced                                   : No

Text #8
ID                                       : 10
Format                                   : UTF-8
Codec ID                                 : S_TEXT/UTF8
Codec ID/Info                            : UTF-8 Plain Text
Duration                                 : 53 min 54 s
Bit rate                                 : 43 b/s
Frame rate                               : 0.145 FPS
Count of elements                        : 468
Stream size                              : 17.1 KiB (0%)
Language                                 : Finnish (FI)
Default                                  : No
Forced                                   : No

Text #9
ID                                       : 11
Format                                   : UTF-8
Codec ID                                 : S_TEXT/UTF8
Codec ID/Info                            : UTF-8 Plain Text
Duration                                 : 56 min 4 s
Bit rate                                 : 37 b/s
Frame rate                               : 0.160 FPS
Count of elements                        : 538
Stream size                              : 15.5 KiB (0%)
Language                                 : Croatian (HR)
Default                                  : No
Forced                                   : No

Text #10
ID                                       : 12
Format                                   : UTF-8
Codec ID                                 : S_TEXT/UTF8
Codec ID/Info                            : UTF-8 Plain Text
Duration                                 : 56 min 13 s
Bit rate                                 : 42 b/s
Frame rate                               : 0.160 FPS
Count of elements                        : 541
Stream size                              : 17.7 KiB (0%)
Language                                 : Hungarian (HU)
Default                                  : No
Forced                                   : No

Text #11
ID                                       : 13
Format                                   : UTF-8
Codec ID                                 : S_TEXT/UTF8
Codec ID/Info                            : UTF-8 Plain Text
Duration                                 : 56 min 4 s
Bit rate                                 : 66 b/s
Frame rate                               : 0.160 FPS
Count of elements                        : 538
Stream size                              : 27.5 KiB (0%)
Language                                 : Macedonian (MK)
Default                                  : No
Forced                                   : No

Text #12
ID                                       : 14
Format                                   : UTF-8
Codec ID                                 : S_TEXT/UTF8
Codec ID/Info                            : UTF-8 Plain Text
Duration                                 : 53 min 54 s
Bit rate                                 : 42 b/s
Frame rate                               : 0.141 FPS
Count of elements                        : 455
Stream size                              : 16.7 KiB (0%)
Language                                 : Dutch (NL)
Default                                  : No
Forced                                   : No

Text #13
ID                                       : 15
Format                                   : UTF-8
Codec ID                                 : S_TEXT/UTF8
Codec ID/Info                            : UTF-8 Plain Text
Duration                                 : 53 min 54 s
Bit rate                                 : 41 b/s
Frame rate                               : 0.134 FPS
Count of elements                        : 435
Stream size                              : 16.5 KiB (0%)
Language                                 : Norwegian (NO)
Default                                  : No
Forced                                   : No

Text #14
ID                                       : 16
Format                                   : UTF-8
Codec ID                                 : S_TEXT/UTF8
Codec ID/Info                            : UTF-8 Plain Text
Duration                                 : 57 min 4 s
Bit rate                                 : 34 b/s
Frame rate                               : 0.132 FPS
Count of elements                        : 452
Stream size                              : 14.5 KiB (0%)
Language                                 : Polish (PL)
Default                                  : No
Forced                                   : No

Text #15
ID                                       : 17
Format                                   : UTF-8
Codec ID                                 : S_TEXT/UTF8
Codec ID/Info                            : UTF-8 Plain Text
Duration                                 : 54 min 42 s
Bit rate                                 : 49 b/s
Frame rate                               : 0.161 FPS
Count of elements                        : 527
Stream size                              : 19.7 KiB (0%)
Title                                    : Portuguese (Brazil)
Language                                 : Portuguese (BR)
Default                                  : No
Forced                                   : No

Text #16
ID                                       : 18
Format                                   : UTF-8
Codec ID                                 : S_TEXT/UTF8
Codec ID/Info                            : UTF-8 Plain Text
Duration                                 : 53 min 54 s
Bit rate                                 : 43 b/s
Frame rate                               : 0.144 FPS
Count of elements                        : 466
Stream size                              : 17.4 KiB (0%)
Title                                    : Portuguese (Portugal)
Language                                 : Portuguese (PT)
Default                                  : No
Forced                                   : No

Text #17
ID                                       : 19
Format                                   : UTF-8
Codec ID                                 : S_TEXT/UTF8
Codec ID/Info                            : UTF-8 Plain Text
Duration                                 : 55 min 59 s
Bit rate                                 : 40 b/s
Frame rate                               : 0.160 FPS
Count of elements                        : 536
Stream size                              : 16.7 KiB (0%)
Language                                 : Romanian (RO)
Default                                  : No
Forced                                   : No

Text #18
ID                                       : 20
Format                                   : UTF-8
Codec ID                                 : S_TEXT/UTF8
Codec ID/Info                            : UTF-8 Plain Text
Duration                                 : 56 min 9 s
Bit rate                                 : 41 b/s
Frame rate                               : 0.165 FPS
Count of elements                        : 555
Stream size                              : 17.2 KiB (0%)
Language                                 : Slovak (SK)
Default                                  : No
Forced                                   : No

Text #19
ID                                       : 21
Format                                   : UTF-8
Codec ID                                 : S_TEXT/UTF8
Codec ID/Info                            : UTF-8 Plain Text
Duration                                 : 56 min 4 s
Bit rate                                 : 35 b/s
Frame rate                               : 0.160 FPS
Count of elements                        : 538
Stream size                              : 14.7 KiB (0%)
Language                                 : Slovenian (SI)
Default                                  : No
Forced                                   : No

Text #20
ID                                       : 22
Format                                   : UTF-8
Codec ID                                 : S_TEXT/UTF8
Codec ID/Info                            : UTF-8 Plain Text
Duration                                 : 56 min 4 s
Bit rate                                 : 37 b/s
Frame rate                               : 0.160 FPS
Count of elements                        : 538
Stream size                              : 15.5 KiB (0%)
Language                                 : Serbian-Latn-RS
Default                                  : No
Forced                                   : No

Text #21
ID                                       : 23
Format                                   : UTF-8
Codec ID                                 : S_TEXT/UTF8
Codec ID/Info                            : UTF-8 Plain Text
Duration                                 : 53 min 54 s
Bit rate                                 : 43 b/s
Frame rate                               : 0.134 FPS
Count of elements                        : 435
Stream size                              : 17.0 KiB (0%)
Language                                 : Swedish (SE)
Default                                  : No
Forced                                   : No

Menu
00:00:00.000                             : en:Intro
00:01:13.235                             : en:Chapter 1
00:13:15.038                             : en:Chapter 3
00:25:54.964                             : en:Chapter 4
00:34:49.915                             : en:Chapter 5
00:42:20.240                             : en:Chapter 6
00:56:32.675                             : en:Credits
00:57:24.685                             : en:Chapter 7



Download
File Container: MKV
Video/Audio Codec: H264 (HIGH) EAC3
Video Resolution: 1920x960

1 Response to "[RR/NF] Tokyo Vice S02E01 Dont Ever Fking Miss 1080p AMZN WEB-DL DDP5 1 H 264-NTb (3.4GB)"
02/08/24
23:01:18
ReadyPlayerOne

Thank You

Please Login to post a comment.
If you don't have any account, please Register.
  • Subscribe my Feeds
  • Facebook

Latest Episodes

Popular Movies and TV Shows

  • Chicago P.D.
  • Chicago Fire
  • Abbott Elementary
  • A Bullet for Joey
  • Night Swim
  • The Pianist
  • Mooned
  • Wild Cards
  • Star Wars: The Bad Batch
  • Chicago Med
  • Slaughterhouse Slumber Party
  • A Couch in New York
  • Constellation
  • The Rookie
  • The Good Doctor
  • Pink Floyd: The Dark Side of the Moon (50th Anniversary Box Set)
  • Ruthless
  • Louis C.K.: Back to the Garden
  • Will Trent
  • FBI
  • Quantum Leap
  • The Mental State
  • Mean Girls
  • Turn Me On, Dammit!
  • Monsieur Spade

Recent Comments

  • tbbttbbt:

    All links are dead, NF is dead too

  • mentalityx:

    THanks for this.

  • KubrickFan:

    Any possibility of a fresh link for this? x264 preferably

  • bitz:

    reload please

  • stefan43: plaese reup on clicknupload.club
  • mentalityx:

    Thx for this one.

  • wxe09104:

    please add Monsieur Spade episode 6

  • ninjamouse28: can someone update this with the actual web-dl? it says it is but still has the logo, & some of ...
  • kellym2:

    Could you please put TV series "STRIFE" eps 1-8 on in 264 format. Much appreciated

  • bitz:

    travelers... wrong series?

Archives