Sign Up   |   Sign In  
ShogunMonkey ManNCISArthur the KingNCIS: Hawai'iDowntown OwlThe NeighborhoodBob Hearts AbisholaWWE RawThe CostOne LifeWhich Brings Me to YouTrackerFalloutThe SimpsonsTime AddictsKung Fu Panda 4Rebel Moon - Part Two: The ScargiverThe SympathizerCSI: VegasThe EqualizerFern Brady: Autistic Bikini QueenTigers on the RiseTigerBeacon 23

Announcements

02/22

2024

1

Comments

Tokyo Vice S02E04 Like A New Man 1080p AMZN WEB-DL DDP5 1 H 264-NTb
[RR/NF]
Size: 3.4GB mkv H264 (HIGH) / EAC3  HD  1920x960

Tokyo Vice
File Information
[img]http://lookpic.com/cdn/i2/t/0222202411101473-1.jpg[/img]
[img]http://lookpic.com/cdn/i2/t/0222202411101473-2.jpg[/img]
[img]http://lookpic.com/cdn/i2/t/0222202411101473-3.jpg[/img]

General
Unique ID                                : 181482753497231145252291396996121579194 (0x88884E934B11C8C35E5313C6F8814EBA)
Complete name                            : Tokyo.Vice.S02E04.Like.A.New.Man.1080p.AMZN.WEB-DL.DDP5.1.H.264-NTb.mkv
Format                                   : Matroska
Format version                           : Version 4
File size                                : 3.44 GiB
Duration                                 : 56 min 30 s
Overall bit rate                         : 8 717 kb/s
Frame rate                               : 23.976 FPS
Writing application                      : mkvmerge v81.0 ('Milliontown') 64-bit
Writing library                          : libebml v1.4.4 + libmatroska v1.7.1

Video
ID                                       : 1
Format                                   : AVC
Format/Info                              : Advanced Video Codec
Format profile                           : High@L4
Format settings                          : CABAC / 4 Ref Frames
Format settings, CABAC                   : Yes
Format settings, Reference frames        : 4 frames
Codec ID                                 : V_MPEG4/ISO/AVC
Duration                                 : 56 min 30 s
Bit rate mode                            : Constant
Bit rate                                 : 8 073 kb/s
Nominal bit rate                         : 10 000 kb/s
Width                                    : 1 920 pixels
Height                                   : 960 pixels
Display aspect ratio                     : 2.000
Frame rate mode                          : Constant
Frame rate                               : 23.976 (24000/1001) FPS
Color space                              : YUV
Chroma subsampling                       : 4:2:0
Bit depth                                : 8 bits
Scan type                                : Progressive
Bits/(Pixel*Frame)                       : 0.183
Stream size                              : 3.19 GiB (93%)
Default                                  : Yes
Forced                                   : No
Color range                              : Limited
Color primaries                          : BT.709
Transfer characteristics                 : BT.709
Matrix coefficients                      : BT.709

Audio
ID                                       : 2
Format                                   : E-AC-3 JOC
Format/Info                              : Enhanced AC-3 with Joint Object Coding
Commercial name                          : Dolby Digital Plus with Dolby Atmos
Codec ID                                 : A_EAC3
Duration                                 : 56 min 30 s
Bit rate mode                            : Constant
Bit rate                                 : 640 kb/s
Channel(s)                               : 6 channels
Channel layout                           : L R C LFE Ls Rs
Sampling rate                            : 48.0 kHz
Frame rate                               : 31.250 FPS (1536 SPF)
Compression mode                         : Lossy
Stream size                              : 259 MiB (7%)
Language                                 : English
Service kind                             : Complete Main
Default                                  : Yes
Forced                                   : No
Complexity index                         : 16
Number of dynamic objects                : 15
Bed channel count                        : 1 channel
Bed channel configuration                : LFE

Text #1
ID                                       : 3
Format                                   : UTF-8
Codec ID                                 : S_TEXT/UTF8
Codec ID/Info                            : UTF-8 Plain Text
Duration                                 : 54 min 5 s
Bit rate                                 : 44 b/s
Frame rate                               : 0.169 FPS
Count of elements                        : 548
Stream size                              : 17.8 KiB (0%)
Language                                 : English (US)
Default                                  : No
Forced                                   : No

Text #2
ID                                       : 4
Format                                   : UTF-8
Codec ID                                 : S_TEXT/UTF8
Codec ID/Info                            : UTF-8 Plain Text
Duration                                 : 55 min 42 s
Bit rate                                 : 27 b/s
Frame rate                               : 0.149 FPS
Count of elements                        : 498
Stream size                              : 11.1 KiB (0%)
Title                                    : SDH
Language                                 : English (US)
Default                                  : No
Forced                                   : No

Text #3
ID                                       : 5
Format                                   : UTF-8
Codec ID                                 : S_TEXT/UTF8
Codec ID/Info                            : UTF-8 Plain Text
Duration                                 : 55 min 10 s
Bit rate                                 : 75 b/s
Frame rate                               : 0.154 FPS
Count of elements                        : 511
Stream size                              : 30.7 KiB (0%)
Language                                 : Bulgarian (BG)
Default                                  : No
Forced                                   : No

Text #4
ID                                       : 6
Format                                   : UTF-8
Codec ID                                 : S_TEXT/UTF8
Codec ID/Info                            : UTF-8 Plain Text
Duration                                 : 55 min 0 s
Bit rate                                 : 41 b/s
Frame rate                               : 0.173 FPS
Count of elements                        : 570
Stream size                              : 16.9 KiB (0%)
Language                                 : Czech (CZ)
Default                                  : No
Forced                                   : No

Text #5
ID                                       : 7
Format                                   : UTF-8
Codec ID                                 : S_TEXT/UTF8
Codec ID/Info                            : UTF-8 Plain Text
Duration                                 : 54 min 12 s
Bit rate                                 : 44 b/s
Frame rate                               : 0.140 FPS
Count of elements                        : 454
Stream size                              : 17.8 KiB (0%)
Language                                 : Danish (DK)
Default                                  : No
Forced                                   : No

Text #6
ID                                       : 8
Format                                   : UTF-8
Codec ID                                 : S_TEXT/UTF8
Codec ID/Info                            : UTF-8 Plain Text
Duration                                 : 55 min 0 s
Bit rate                                 : 49 b/s
Frame rate                               : 0.172 FPS
Count of elements                        : 566
Stream size                              : 19.8 KiB (0%)
Title                                    : Spanish (Latin America)
Language                                 : Spanish (Latin America)
Default                                  : No
Forced                                   : No

Text #7
ID                                       : 9
Format                                   : UTF-8
Codec ID                                 : S_TEXT/UTF8
Codec ID/Info                            : UTF-8 Plain Text
Duration                                 : 54 min 5 s
Bit rate                                 : 44 b/s
Frame rate                               : 0.171 FPS
Count of elements                        : 554
Stream size                              : 17.8 KiB (0%)
Title                                    : Spanish (Spain)
Language                                 : Spanish (ES)
Default                                  : No
Forced                                   : No

Text #8
ID                                       : 10
Format                                   : UTF-8
Codec ID                                 : S_TEXT/UTF8
Codec ID/Info                            : UTF-8 Plain Text
Duration                                 : 54 min 12 s
Bit rate                                 : 40 b/s
Frame rate                               : 0.156 FPS
Count of elements                        : 506
Stream size                              : 16.1 KiB (0%)
Language                                 : Estonian (EE)
Default                                  : No
Forced                                   : No

Text #9
ID                                       : 11
Format                                   : UTF-8
Codec ID                                 : S_TEXT/UTF8
Codec ID/Info                            : UTF-8 Plain Text
Duration                                 : 54 min 12 s
Bit rate                                 : 43 b/s
Frame rate                               : 0.155 FPS
Count of elements                        : 504
Stream size                              : 17.2 KiB (0%)
Language                                 : Finnish (FI)
Default                                  : No
Forced                                   : No

Text #10
ID                                       : 12
Format                                   : UTF-8
Codec ID                                 : S_TEXT/UTF8
Codec ID/Info                            : UTF-8 Plain Text
Duration                                 : 55 min 9 s
Bit rate                                 : 38 b/s
Frame rate                               : 0.168 FPS
Count of elements                        : 555
Stream size                              : 15.6 KiB (0%)
Language                                 : Croatian (HR)
Default                                  : No
Forced                                   : No

Text #11
ID                                       : 13
Format                                   : UTF-8
Codec ID                                 : S_TEXT/UTF8
Codec ID/Info                            : UTF-8 Plain Text
Duration                                 : 54 min 25 s
Bit rate                                 : 44 b/s
Frame rate                               : 0.170 FPS
Count of elements                        : 556
Stream size                              : 17.7 KiB (0%)
Language                                 : Hungarian (HU)
Default                                  : No
Forced                                   : No

Text #12
ID                                       : 14
Format                                   : UTF-8
Codec ID                                 : S_TEXT/UTF8
Codec ID/Info                            : UTF-8 Plain Text
Duration                                 : 54 min 12 s
Bit rate                                 : 39 b/s
Frame rate                               : 0.156 FPS
Count of elements                        : 506
Stream size                              : 15.9 KiB (0%)
Language                                 : Lithuanian (LT)
Default                                  : No
Forced                                   : No

Text #13
ID                                       : 15
Format                                   : UTF-8
Codec ID                                 : S_TEXT/UTF8
Codec ID/Info                            : UTF-8 Plain Text
Duration                                 : 54 min 12 s
Bit rate                                 : 41 b/s
Frame rate                               : 0.155 FPS
Count of elements                        : 504
Stream size                              : 16.3 KiB (0%)
Language                                 : Latvian (LV)
Default                                  : No
Forced                                   : No

Text #14
ID                                       : 16
Format                                   : UTF-8
Codec ID                                 : S_TEXT/UTF8
Codec ID/Info                            : UTF-8 Plain Text
Duration                                 : 55 min 9 s
Bit rate                                 : 68 b/s
Frame rate                               : 0.168 FPS
Count of elements                        : 555
Stream size                              : 27.8 KiB (0%)
Language                                 : Macedonian (MK)
Default                                  : No
Forced                                   : No

Text #15
ID                                       : 17
Format                                   : UTF-8
Codec ID                                 : S_TEXT/UTF8
Codec ID/Info                            : UTF-8 Plain Text
Duration                                 : 54 min 12 s
Bit rate                                 : 41 b/s
Frame rate                               : 0.151 FPS
Count of elements                        : 491
Stream size                              : 16.5 KiB (0%)
Language                                 : Dutch (NL)
Default                                  : No
Forced                                   : No

Text #16
ID                                       : 18
Format                                   : UTF-8
Codec ID                                 : S_TEXT/UTF8
Codec ID/Info                            : UTF-8 Plain Text
Duration                                 : 54 min 12 s
Bit rate                                 : 41 b/s
Frame rate                               : 0.138 FPS
Count of elements                        : 449
Stream size                              : 16.6 KiB (0%)
Language                                 : Norwegian (NO)
Default                                  : No
Forced                                   : No

Text #17
ID                                       : 19
Format                                   : UTF-8
Codec ID                                 : S_TEXT/UTF8
Codec ID/Info                            : UTF-8 Plain Text
Duration                                 : 56 min 4 s
Bit rate                                 : 35 b/s
Frame rate                               : 0.138 FPS
Count of elements                        : 464
Stream size                              : 14.4 KiB (0%)
Language                                 : Polish (PL)
Default                                  : No
Forced                                   : No

Text #18
ID                                       : 20
Format                                   : UTF-8
Codec ID                                 : S_TEXT/UTF8
Codec ID/Info                            : UTF-8 Plain Text
Duration                                 : 55 min 0 s
Bit rate                                 : 50 b/s
Frame rate                               : 0.172 FPS
Count of elements                        : 567
Stream size                              : 20.4 KiB (0%)
Title                                    : Portuguese (Brazil)
Language                                 : Portuguese (BR)
Default                                  : No
Forced                                   : No

Text #19
ID                                       : 21
Format                                   : UTF-8
Codec ID                                 : S_TEXT/UTF8
Codec ID/Info                            : UTF-8 Plain Text
Duration                                 : 54 min 12 s
Bit rate                                 : 45 b/s
Frame rate                               : 0.160 FPS
Count of elements                        : 522
Stream size                              : 18.2 KiB (0%)
Title                                    : Portuguese (Portugal)
Language                                 : Portuguese (PT)
Default                                  : No
Forced                                   : No

Text #20
ID                                       : 22
Format                                   : UTF-8
Codec ID                                 : S_TEXT/UTF8
Codec ID/Info                            : UTF-8 Plain Text
Duration                                 : 54 min 21 s
Bit rate                                 : 42 b/s
Frame rate                               : 0.163 FPS
Count of elements                        : 533
Stream size                              : 17.0 KiB (0%)
Language                                 : Romanian (RO)
Default                                  : No
Forced                                   : No

Text #21
ID                                       : 23
Format                                   : UTF-8
Codec ID                                 : S_TEXT/UTF8
Codec ID/Info                            : UTF-8 Plain Text
Duration                                 : 54 min 22 s
Bit rate                                 : 43 b/s
Frame rate                               : 0.173 FPS
Count of elements                        : 563
Stream size                              : 17.3 KiB (0%)
Language                                 : Slovak (SK)
Default                                  : No
Forced                                   : No

Text #22
ID                                       : 24
Format                                   : UTF-8
Codec ID                                 : S_TEXT/UTF8
Codec ID/Info                            : UTF-8 Plain Text
Duration                                 : 55 min 9 s
Bit rate                                 : 36 b/s
Frame rate                               : 0.167 FPS
Count of elements                        : 554
Stream size                              : 14.8 KiB (0%)
Language                                 : Slovenian (SI)
Default                                  : No
Forced                                   : No

Text #23
ID                                       : 25
Format                                   : UTF-8
Codec ID                                 : S_TEXT/UTF8
Codec ID/Info                            : UTF-8 Plain Text
Duration                                 : 55 min 9 s
Bit rate                                 : 38 b/s
Frame rate                               : 0.168 FPS
Count of elements                        : 555
Stream size                              : 15.7 KiB (0%)
Language                                 : Serbian-Latn-RS
Default                                  : No
Forced                                   : No

Text #24
ID                                       : 26
Format                                   : UTF-8
Codec ID                                 : S_TEXT/UTF8
Codec ID/Info                            : UTF-8 Plain Text
Duration                                 : 54 min 12 s
Bit rate                                 : 42 b/s
Frame rate                               : 0.138 FPS
Count of elements                        : 448
Stream size                              : 17.0 KiB (0%)
Language                                 : Swedish (SE)
Default                                  : No
Forced                                   : No

Menu
00:00:00.000                             : en:Intro
00:01:18.448                             : en:Chapter 1
00:10:35.087                             : en:Chapter 2
00:23:16.013                             : en:Chapter 3
00:32:58.095                             : en:Chapter 4
00:44:46.469                             : en:Chapter 5
00:55:30.154                             : en:Credits



Download
File Container: MKV
Video/Audio Codec: H264 (HIGH) EAC3
Video Resolution: 1920x960

1 Response to "[RR/NF] Tokyo Vice S02E04 Like A New Man 1080p AMZN WEB-DL DDP5 1 H 264-NTb (3.4GB)"
02/22/24
22:13:36
ReadyPlayerOne

Thank You

Please Login to post a comment.
If you don't have any account, please Register.
  • Subscribe my Feeds
  • Facebook
Encoding Queue:  x264  x265

Latest Episodes

Popular Movies and TV Shows

  • Shogun
  • Monkey Man
  • NCIS
  • Arthur the King
  • NCIS: Hawai'i
  • Downtown Owl
  • The Neighborhood
  • Bob Hearts Abishola
  • WWE Raw
  • The Cost
  • One Life
  • Which Brings Me to You
  • Tracker
  • Fallout
  • The Simpsons
  • Time Addicts
  • Kung Fu Panda 4
  • Rebel Moon - Part Two: The Scargiver
  • The Sympathizer
  • CSI: Vegas
  • The Equalizer
  • Fern Brady: Autistic Bikini Queen
  • Tigers on the Rise
  • Tiger
  • Beacon 23

Recent Comments

  • 89M:

    NitroFlare's link is missing !!!
    Clicknupload's link is missing !!!

  • V4ND4L: May we get a ClicknUpload link for this, please. It's conspicuously missing for the team/size.
  • Bud:

    The file's half the size it should be & corrupted. Useless. Avoid.

  • mentalityx:

    Rad dude

  • mentalityx:

    Rad mate

  • waanaabe:

    I tried this file with 3 different players which all said they couldn't read the codec

  • Rosa: hi i have a question,this file size is 198mb,but on clickenupload is only 118mb is it right? what ha...
  • mike1204:

    Any reason why this episode is omitted from 'click'n'upload??

  • kellym2: I appreciate all the hard work the team does BUT there is no point in my paying for a Premium subscr...
  • Cinque_Persson: Why not skip the old news and hearsay and be constructive: what's the best alternatives for Win, Mac...
  • fallensammer:

    the file on click upload is 119mg onnly and is corrupted

  • ronkanon:

    Could you please provide a ClicknUpload link?

  • ronkanon:

    Could you please provide a ClicknUpload link?

  • waanaabe: Could you Kindly Upload the SOUTH PARK seasons to CU as well? Would be really appreciated
  • gusmac67:

    Clickupload link is corrupt. File bad at 38 min

  • timt:

    Narrated Movie!

  • Richardexamp: I recently stumbled upon https://asiancasinos.org/ and I obligated to symbolize, it has with dispatc...

Archives