Sign Up   |   Sign In  
EvilWalkerWWE NXTBratsIn the Line of FireThe BraidColin from AccountsReginald the VampireInside No. 9The Artifice GirlOriginCamille 2000The AcolytePresumed InnocentDark MatterThe PrimevalsMysteries of the Terracotta WarriorsCashbackThe Big Door PrizeThe Bold and the BeautifulTryingHow Music Got FreeLost SoulzPet SemataryThe Daily Show

Announcements

05/20

2024

1

Comments

Tracker 2024 S01E13 The Storm 720p AMZN WEB-DL DDP5 1 H 264-NTb
[RR/NF/CU]
Size: 1.1GB mkv H264 (HIGH) / EAC3  HD  1280x720

Tracker
File Information
[img]http://lookpic.com/cdn/i2/t/0520202408214666-1.jpg[/img]
[img]http://lookpic.com/cdn/i2/t/0520202408214666-2.jpg[/img]
[img]http://lookpic.com/cdn/i2/t/0520202408214666-3.jpg[/img]

General
Unique ID                                : 97675832000206179849724849959788337644 (0x497BAE53FF952B949E3A0B510B27D9EC)
Complete name                            : Tracker.2024.S01E13.The.Storm.720p.AMZN.WEB-DL.DDP5.1.H.264-NTb.mkv
Format                                   : Matroska
Format version                           : Version 4
File size                                : 1.07 GiB
Duration                                 : 43 min 3 s
Overall bit rate                         : 3 555 kb/s
Frame rate                               : 23.976 FPS
Writing application                      : mkvmerge v84.0 ('Sleeper') 64-bit
Writing library                          : libebml v1.4.5 + libmatroska v1.7.1

Video
ID                                       : 1
Format                                   : AVC
Format/Info                              : Advanced Video Codec
Format profile                           : High@L3.1
Format settings                          : CABAC / 4 Ref Frames
Format settings, CABAC                   : Yes
Format settings, Reference frames        : 4 frames
Codec ID                                 : V_MPEG4/ISO/AVC
Duration                                 : 43 min 3 s
Bit rate mode                            : Constant
Bit rate                                 : 2 913 kb/s
Nominal bit rate                         : 4 000 kb/s
Width                                    : 1 280 pixels
Height                                   : 720 pixels
Display aspect ratio                     : 16:9
Frame rate mode                          : Constant
Frame rate                               : 23.976 (24000/1001) FPS
Color space                              : YUV
Chroma subsampling                       : 4:2:0
Bit depth                                : 8 bits
Scan type                                : Progressive
Bits/(Pixel*Frame)                       : 0.132
Stream size                              : 897 MiB (82%)
Default                                  : Yes
Forced                                   : No
Color range                              : Limited
Color primaries                          : BT.709
Transfer characteristics                 : BT.709
Matrix coefficients                      : BT.709

Audio
ID                                       : 2
Format                                   : E-AC-3
Format/Info                              : Enhanced AC-3
Commercial name                          : Dolby Digital Plus
Codec ID                                 : A_EAC3
Duration                                 : 43 min 3 s
Bit rate mode                            : Constant
Bit rate                                 : 640 kb/s
Channel(s)                               : 6 channels
Channel layout                           : L R C LFE Ls Rs
Sampling rate                            : 48.0 kHz
Frame rate                               : 31.250 FPS (1536 SPF)
Compression mode                         : Lossy
Stream size                              : 197 MiB (18%)
Language                                 : English (US)
Service kind                             : Complete Main
Default                                  : Yes
Forced                                   : No

Text #1
ID                                       : 3
Format                                   : UTF-8
Codec ID                                 : S_TEXT/UTF8
Codec ID/Info                            : UTF-8 Plain Text
Duration                                 : 42 min 33 s
Bit rate                                 : 81 b/s
Frame rate                               : 0.336 FPS
Count of elements                        : 858
Stream size                              : 25.2 KiB (0%)
Language                                 : English (US)
Default                                  : No
Forced                                   : No

Text #2
ID                                       : 4
Format                                   : UTF-8
Codec ID                                 : S_TEXT/UTF8
Codec ID/Info                            : UTF-8 Plain Text
Duration                                 : 42 min 33 s
Bit rate                                 : 85 b/s
Frame rate                               : 0.364 FPS
Count of elements                        : 929
Stream size                              : 26.7 KiB (0%)
Title                                    : SDH
Language                                 : English (US)
Default                                  : No
Forced                                   : No



Download
File Container: MKV
Video/Audio Codec: H264 (HIGH) EAC3
Video Resolution: 1280x720

1 Response to "[RR/NF/CU] Tracker 2024 S01E13 The Storm 720p AMZN WEB-DL DDP5 1 H 264-NTb (1.1GB)"
05/20/24
08:54:31
ReadyPlayerOne

Thank You

Please Login to post a comment.
If you don't have any account, please Register.
  • Subscribe my Feeds
  • Facebook
Encoding Queue:  x264  x265

Latest Episodes

Popular Movies and TV Shows

  • Evil
  • Walker
  • WWE NXT
  • Brats
  • In the Line of Fire
  • The Braid
  • Colin from Accounts
  • Reginald the Vampire
  • Inside No. 9
  • The Artifice Girl
  • Origin
  • Camille 2000
  • The Acolyte
  • Presumed Innocent
  • Dark Matter
  • The Primevals
  • Mysteries of the Terracotta Warriors
  • Cashback
  • The Big Door Prize
  • The Bold and the Beautiful
  • Trying
  • How Music Got Free
  • Lost Soulz
  • Pet Sematary
  • The Daily Show

Recent Comments

  • Diggety247:

    BrokenHanded, Try using a DL manager.

  • BrokenHanded: clicknupload does not seem to work for past few days. keep getting an error saying the site is sendi...
  • Bud: Helps if you actually add these to the "Late Night with Seth Meyers" page too...
  • rambaldi70:

    Hy! Right now, my download speed : 1 Mb/s
    this is ok?
    Tx answer

  • Cinque_Persson: At 183 MB this had to be something completely different. In fact it's just the main actors commentin...
  • meyat74:

    my bad, should be full season

  • Oscar2:

    Halo "is" a good show

  • MeH:

    "one of the most impressive scenes"

Archives