Sign Up   |   Sign In  

Announcements

Want to support us?
Buy a RapidRAR account from our resellers:
Buy or renew a NitroFlare account via THIS LINK

04/16

2017

No

Comments

Training Day S01E08 1080p WEB-DL DD5 1 H264-RARBG
[RR/NF/UL/UR]
Size: 1.7GB mkv H264 (HIGH) / AC3  HD  1912x1072

Training Day
Click on the image to see full size
[RR/NF/UL/UR] Training Day S01E08 1080p WEB-DL DD5 1 H264-RARBG (1.7GB) - Snapshot 1
File Information
[URL=http://imagecurl.com/viewer.php?file=34864545955741381586.png][IMG]http://imagecurl.com/images/34864545955741381586_thumb.png[/IMG][/URL]
[URL=http://imagecurl.com/viewer.php?file=34206181893240104172.png][IMG]http://imagecurl.com/images/34206181893240104172_thumb.png[/IMG][/URL]
[URL=http://imagecurl.com/viewer.php?file=92501014442290448669.png][IMG]http://imagecurl.com/images/92501014442290448669_thumb.png[/IMG][/URL]
[URL=http://imagecurl.com/viewer.php?file=00771232228329026536.png][IMG]http://imagecurl.com/images/00771232228329026536_thumb.png[/IMG][/URL]
[URL=http://imagecurl.com/viewer.php?file=16388998263258141872.png][IMG]http://imagecurl.com/images/16388998263258141872_thumb.png[/IMG][/URL]
[URL=http://imagecurl.com/viewer.php?file=26151489160179958428.png][IMG]http://imagecurl.com/images/26151489160179958428_thumb.png[/IMG][/URL]



[mediainfo]
Video
ID                                       : 1
Format                                   : AVC
Format/Info                              : Advanced Video Codec
Format profile                           : [email protected]
Format settings, CABAC                   : Yes
Format settings, ReFrames                : 4 frames
Codec ID                                 : V_MPEG4/ISO/AVC
Duration                                 : 43mn 9s
Bit rate                                 : 5 060 Kbps
Width                                    : 1 912 pixels
Height                                   : 1 072 pixels
Display aspect ratio                     : 16:9
Frame rate mode                          : Constant
Frame rate                               : 23.976 (24000/1001) fps
Color space                              : YUV
Chroma subsampling                       : 4:2:0
Bit depth                                : 8 bits
Scan type                                : Progressive
Bits/(Pixel*Frame)                       : 0.103
Stream size                              : 1.53 GiB (91%)
Title                                    : Training.Day.S01E08.1080p.WEB-DL.DD5.1.H264-RARBG
Language                                 : English
Default                                  : Yes
Forced                                   : No
Color range                              : Limited
Color primaries                          : BT.709
Transfer characteristics                 : BT.709
Matrix coefficients                      : BT.709

Audio
ID                                       : 2
Format                                   : AC-3
Format/Info                              : Audio Coding 3
Mode extension                           : CM (complete main)
Format settings, Endianness              : Big
Codec ID                                 : A_AC3
Duration                                 : 43mn 9s
Bit rate mode                            : Constant
Bit rate                                 : 384 Kbps
Channel(s)                               : 6 channels
Channel positions                        : Front: L C R, Side: L R, LFE
Sampling rate                            : 48.0 KHz
Frame rate                               : 31.250 fps (1536 spf)
Compression mode                         : Lossy
Stream size                              : 119 MiB (7%)
Title                                    : Training.Day.S01E08.1080p.WEB-DL.DD5.1.H264-RARBG
Language                                 : English
Default                                  : Yes
Forced                                   : No

Text #1
ID                                       : 3
Format                                   : UTF-8
Codec ID                                 : S_TEXT/UTF8
Codec ID/Info                            : UTF-8 Plain Text
Language                                 : English
Default                                  : Yes
Forced                                   : No

Text #2
ID                                       : 4
Format                                   : UTF-8
Codec ID                                 : S_TEXT/UTF8
Codec ID/Info                            : UTF-8 Plain Text
Title                                    : SDH
Language                                 : English
Default                                  : No
Forced                                   : No



[/mediainfo]
Download
File Container: MKV
Video/Audio Codec: H264 (HIGH) AC3
Video Resolution: 1912x1072
 
 
 
 

Show us some love

Leave a Comment

  • (never displayed)
  •  
        Members don't see captchas. Sign Up / Sign In
  • Notify me via email when someone responds.
  • Subscribe my Feeds
  • Facebook

Latest Episodes

Popular Movies and TV Shows

  • Doctor Who
  • John Wick: Chapter 2
  • Naked Ambition: An R Rated Look at an X Rated Industry
  • Bedtime Stories
  • Bloodline
  • Clique
  • Ma vie de Courgette
  • Hinterland
  • Queen Rock Montreal & Live Aid
  • 12 Monkeys
  • Bunk'd
  • 84 Charing Cross Road
  • The Northlander
  • A Cure for Wellness
  • Colossal
  • Neon Joe, Werewolf Hunter
  • Vixen
  • The Late Show with Stephen Colbert
  • War Machine
  • Jamestown
  • The Last Word
  • The Ticket
  • Black Widows
  • Ancient Aliens
  • T2 Trainspotting

Recent Comments

  • HEVC lover: Admin could you please re-upload madam.secretary.s03e16.720p.hdtv.hevc.x265.rmteam at any other file...
  • RMTeam:

    Admin
    File Not Found http://rapidrar.com/7p4t5it63ib4
    please RapidRAR re-upload

  • Deltron 3030:

    any chance of an RMX avi encode of this episode?

  • b007:

    Thanks for finishing up this week's episodes. Very grateful.

  • Admin:

    Soon.

  • Admin:

    Sure, soon.

  • David-A-H:

    Thank you

  • David-A-H:

    Thank you

  • David-A-H:

    Thank you

  • David-A-H:

    Thank you