Sign Up   |   Sign In  

Announcements

Want to support us?
Buy a RapidRAR account from our resellers:
Buy or renew a NitroFlare account via THIS LINK

04/16

2017

No

Comments

Training Day S01E08 720p WEB-DL DD5 1 H264-RARBG
[RR/NF/UL/UR]
Size: 1.3GB mkv H264 (HIGH) / AC3  HD  1280x718

Training Day
Click on the image to see full size
[RR/NF/UL/UR] Training Day S01E08 720p WEB-DL DD5 1 H264-RARBG (1.3GB) - Snapshot 1
File Information
[URL=http://imagecurl.com/viewer.php?file=47253547425909381870.png][IMG]http://imagecurl.com/images/47253547425909381870_thumb.png[/IMG][/URL]
[URL=http://imagecurl.com/viewer.php?file=02851226585127871042.png][IMG]http://imagecurl.com/images/02851226585127871042_thumb.png[/IMG][/URL]
[URL=http://imagecurl.com/viewer.php?file=42065373058717384094.png][IMG]http://imagecurl.com/images/42065373058717384094_thumb.png[/IMG][/URL]
[URL=http://imagecurl.com/viewer.php?file=11780866511084781291.png][IMG]http://imagecurl.com/images/11780866511084781291_thumb.png[/IMG][/URL]
[URL=http://imagecurl.com/viewer.php?file=89975352750615923414.png][IMG]http://imagecurl.com/images/89975352750615923414_thumb.png[/IMG][/URL]
[URL=http://imagecurl.com/viewer.php?file=41338142357821576892.png][IMG]http://imagecurl.com/images/41338142357821576892_thumb.png[/IMG][/URL]



[mediainfo]
Video
ID                                       : 1
Format                                   : AVC
Format/Info                              : Advanced Video Codec
Format profile                           : [email protected]
Format settings, CABAC                   : No
Format settings, ReFrames                : 2 frames
Codec ID                                 : V_MPEG4/ISO/AVC
Duration                                 : 43mn 9s
Bit rate                                 : 3 957 Kbps
Width                                    : 1 280 pixels
Height                                   : 718 pixels
Display aspect ratio                     : 16:9
Frame rate mode                          : Constant
Frame rate                               : 23.976 (24000/1001) fps
Color space                              : YUV
Chroma subsampling                       : 4:2:0
Bit depth                                : 8 bits
Scan type                                : Progressive
Bits/(Pixel*Frame)                       : 0.180
Stream size                              : 1.19 GiB (89%)
Title                                    : Training.Day.S01E08.720p.WEB-DL.DD5.1.H264-RARBG
Language                                 : English
Default                                  : Yes
Forced                                   : No
Color range                              : Limited
Color primaries                          : BT.709
Transfer characteristics                 : BT.709
Matrix coefficients                      : BT.709

Audio
ID                                       : 2
Format                                   : AC-3
Format/Info                              : Audio Coding 3
Mode extension                           : CM (complete main)
Format settings, Endianness              : Big
Codec ID                                 : A_AC3
Duration                                 : 43mn 9s
Bit rate mode                            : Constant
Bit rate                                 : 384 Kbps
Channel(s)                               : 6 channels
Channel positions                        : Front: L C R, Side: L R, LFE
Sampling rate                            : 48.0 KHz
Frame rate                               : 31.250 fps (1536 spf)
Compression mode                         : Lossy
Stream size                              : 119 MiB (9%)
Title                                    : Training.Day.S01E08.720p.WEB-DL.DD5.1.H264-RARBG
Language                                 : English
Default                                  : Yes
Forced                                   : No

Text #1
ID                                       : 3
Format                                   : UTF-8
Codec ID                                 : S_TEXT/UTF8
Codec ID/Info                            : UTF-8 Plain Text
Language                                 : English
Default                                  : Yes
Forced                                   : No

Text #2
ID                                       : 4
Format                                   : UTF-8
Codec ID                                 : S_TEXT/UTF8
Codec ID/Info                            : UTF-8 Plain Text
Title                                    : SDH
Language                                 : English
Default                                  : No
Forced                                   : No



[/mediainfo]
Download
File Container: MKV
Video/Audio Codec: H264 (HIGH) AC3
Video Resolution: 1280x718
 
 
 
 

Show us some love

Leave a Comment

  • (never displayed)
  •  
        Members don't see captchas. Sign Up / Sign In
  • Notify me via email when someone responds.
  • Subscribe my Feeds
  • Facebook

Latest Episodes

Popular Movies and TV Shows

  • Doctor Who
  • The Northlander
  • An Unfinished Life
  • The Late Show with Stephen Colbert
  • Ma vie de Courgette
  • The Americans
  • Dragon Ball Super: Doragon bôru cho
  • Neon Joe, Werewolf Hunter
  • Naked Ambition: An R Rated Look at an X Rated Industry
  • John Wick: Chapter 2
  • The Ticket
  • The Dead Files
  • Bloodline
  • Colossal
  • A Cure for Wellness
  • Hinterland
  • T2 Trainspotting
  • Clique
  • War Machine
  • Jamestown
  • Black Widows
  • 12 Monkeys
  • Queen Rock Montreal & Live Aid
  • The Last Word
  • Arrow

Recent Comments