Sign Up   |   Sign In  

Announcements

Want to support us?
Buy a RapidRAR account from our resellers:
Buy or renew a NitroFlare account via THIS LINK

04/16

2017

No

Comments

Training Day S01E08 WEB-DL x264-RARBG
[RR/NF/UL/OL/OLw/UR/CU]
Size: 306MB mp4 H264 (HIGH) (AVC1) / AAC (LC) (MP4A) 720x400

Training Day
Click on the image to see full size
[RR/NF/UL/OL/OLw/UR/CU] Training Day S01E08 WEB-DL x264-RARBG (306MB) - Snapshot 1[RR/NF/UL/OL/OLw/UR/CU] Training Day S01E08 WEB-DL x264-RARBG (306MB) - Snapshot 2
File Information
[URL]http://www.imdb.com/title/tt4946972/[/URL]
[screenshots]
[URL=http://imagecurl.com/viewer.php?file=35102573113090437807.png][IMG]http://imagecurl.com/images/35102573113090437807_thumb.png[/IMG][/URL]
[URL=http://imagecurl.com/viewer.php?file=97740128447127389303.png][IMG]http://imagecurl.com/images/97740128447127389303_thumb.png[/IMG][/URL]
[URL=http://imagecurl.com/viewer.php?file=10862214890653409180.png][IMG]http://imagecurl.com/images/10862214890653409180_thumb.png[/IMG][/URL]
[URL=http://imagecurl.com/viewer.php?file=73666709868907346750.png][IMG]http://imagecurl.com/images/73666709868907346750_thumb.png[/IMG][/URL]

[/screenshots]


[mediainfo]
Video
ID                                       : 1
Format                                   : AVC
Format/Info                              : Advanced Video Codec
Format profile                           : [email protected]
Format settings, CABAC                   : Yes
Format settings, ReFrames                : 5 frames
Codec ID                                 : avc1
Codec ID/Info                            : Advanced Video Coding
Duration                                 : 43mn 9s
Bit rate                                 : 858 Kbps
Width                                    : 720 pixels
Height                                   : 400 pixels
Display aspect ratio                     : 16:9
Original display aspect ratio            : 16:9
Frame rate mode                          : Constant
Frame rate                               : 23.976 (24000/1001) fps
Color space                              : YUV
Chroma subsampling                       : 4:2:0
Bit depth                                : 8 bits
Scan type                                : Progressive
Bits/(Pixel*Frame)                       : 0.124
Stream size                              : 265 MiB (87%)
Title                                    : RARBG.COM - Training.Day.S01E08.WEB-DL.x264-RARBG
Writing library                          : x264 core 148 r2597M e86f3a1
 Encoding settings                        : cabac=1 / ref=5 / deblock=1:-1:-1 / analyse=0x3:0x113 / me=umh / subme=9 / psy=1 / psy_rd=1.00:0.15 / mixed_ref=1 / me_range=16 / chroma_me=1 / trellis=2 / 8x8dct=1 / cqm=0 / deadz / fast pskip=1 / chroma_qp_offset=-3 / threads=12 / lookahead_threads=1 / sliced_threads=0 / nr=0 / decimate=1 / interlaced=0 / bluray_compat=0 / c / bframes=3 / b_pyramid=2 / b_adapt=2 / b_bias=0 / direct=3 / weightb=1 / open_gop=0 / weightp=2 / keyint=250 / keyint_min=23 / scenecut=40 / intra_refresh=0 / rc_lookahead=50 / rc=crf / mbtree=1 / crf=19.0 / qcomp=0.60 / qpmin=0 / qpmax=69 / qpstep=4 / ip_ratio=1.40 / aq=1:1.00
Language                                 : English
Encoded date                             : UTC 2017-04-16 09:28:32
Tagged date                              : UTC 2017-04-16 09:28:32

Audio
ID                                       : 2
Format                                   : AAC
Format/Info                              : Advanced Audio Codec
Format profile                           : LC
Codec ID                                 : 40
Duration                                 : 43mn 9s
Duration_LastFrame                       : -11ms
Bit rate mode                            : Constant
Bit rate                                 : 128 Kbps
Channel(s)                               : 2 channels
Channel positions                        : Front: L R
Sampling rate                            : 48.0 KHz
Frame rate                               : 46.875 fps (1024 spf)
Compression mode                         : Lossy
Stream size                              : 39.5 MiB (13%)
Title                                    : RARBG.COM - Training.Day.S01E08.WEB-DL.x264-RARBG
Language                                 : English
Default                                  : Yes
Alternate group                          : 1
Encoded date                             : UTC 2017-04-16 09:28:32
Tagged date                              : UTC 2017-04-16 09:28:32



[/mediainfo]
Download
File Container: MP4
Video/Audio Codec: H264 (HIGH) (AVC1) AAC (LC) (MP4A)
Video Resolution: 720x400
 
 
 
 
 
 
Watch Online [MP4]

Show us some love

Leave a Comment

  • (never displayed)
  •  
        Members don't see captchas. Sign Up / Sign In
  • Notify me via email when someone responds.
  • Subscribe my Feeds
  • Facebook

Latest Episodes

Popular Movies and TV Shows

  • The Big Bang Theory
  • Dear White People
  • The Blacklist
  • Voice from the Stone
  • The Sex Addict
  • Colossal
  • Supernatural
  • Grey's Anatomy
  • The Last Kingdom
  • A Dark Song
  • Fallen
  • Fire in Her Bed
  • Riverdale
  • The Catch
  • Scandal
  • Fifty Shades Darker
  • Ikari
  • Worry Dolls
  • Fargo
  • Arrow
  • Blindspot
  • The Fate of the Furious
  • Bliss
  • Stratton
  • The Flash

Recent Comments

  • TT:

    uploaded link is dead for all this episode and all others of this series

  • swisspop:

    Video is completely garbled. Waiting for PROPER.

  • tt:

    uploaded links have been removed for all versions of this episode

  • Kirvas:

    The subtitles are Chinese

  • meridian:

    @CharMr
    A free account will let you download files up to 990 MB

  • jwill758:

    Could you please reup the RapidRAR files once again please

  • bigbadbryce: Baskets.S02E02.PROPER.HDTV.x264-KILLERSRapidrar link dead. Could you please re-up.Ciao
  • thaone:

    Thank you

  • thaone:

    Thank you

  • thaone:

    Thank you