Sign Up   |   Sign In  
S.W.A.T.Blue BloodsFire CountryFirefoxThe Late GameSimonSpacemanReal Time with Bill MaherYoung SheldonThe RookieMegamind vs. The Doom SyndicateLolaMasters of the AirHaloBMFThe SeedingAlice in TerrorlandDune: Part TwoGhostsElsbethHightownNorthern ComfortCamp Pleasant LakeThe ChapelResident Alien

Announcements

02/05

2024

1

Comments

True Detective S04E04 Night Country Part 4 720p AMZN WEB-DL DDP5 1 H 264-NTb
[RR/NF/CU]
Size: 1.8GB mkv H264 (HIGH) / EAC3  HD  1280x640

True Detective
File Information
[img]http://lookpic.com/cdn/i2/t/0204202418360236-1.jpg[/img]
[img]http://lookpic.com/cdn/i2/t/0204202418360236-2.jpg[/img]
[img]http://lookpic.com/cdn/i2/t/0204202418360236-3.jpg[/img]

General
Unique ID                                : 174968755273413583908509922659722607406 (0x83A1C1AAB9DF0A214BBFBFA3ADC03B2E)
Complete name                            : True.Detective.S04E04.Night.Country.Part.4.720p.AMZN.WEB-DL.DDP5.1.H.264-NTb.mkv
Format                                   : Matroska
Format version                           : Version 4
File size                                : 1.78 GiB
Duration                                 : 1 h 0 min
Overall bit rate                         : 4 201 kb/s
Frame rate                               : 23.976 FPS
Writing application                      : mkvmerge v81.0 ('Milliontown') 64-bit
Writing library                          : libebml v1.4.4 + libmatroska v1.7.1

Video
ID                                       : 1
Format                                   : AVC
Format/Info                              : Advanced Video Codec
Format profile                           : High@L3.1
Format settings                          : CABAC / 4 Ref Frames
Format settings, CABAC                   : Yes
Format settings, Reference frames        : 4 frames
Codec ID                                 : V_MPEG4/ISO/AVC
Duration                                 : 1 h 0 min
Bit rate mode                            : Constant
Bit rate                                 : 3 557 kb/s
Nominal bit rate                         : 4 000 kb/s
Width                                    : 1 280 pixels
Height                                   : 640 pixels
Display aspect ratio                     : 2.000
Frame rate mode                          : Constant
Frame rate                               : 23.976 (24000/1001) FPS
Color space                              : YUV
Chroma subsampling                       : 4:2:0
Bit depth                                : 8 bits
Scan type                                : Progressive
Bits/(Pixel*Frame)                       : 0.181
Stream size                              : 1.51 GiB (85%)
Default                                  : Yes
Forced                                   : No
Color range                              : Limited
Color primaries                          : BT.709
Transfer characteristics                 : BT.709
Matrix coefficients                      : BT.709

Audio
ID                                       : 2
Format                                   : E-AC-3 JOC
Format/Info                              : Enhanced AC-3 with Joint Object Coding
Commercial name                          : Dolby Digital Plus with Dolby Atmos
Codec ID                                 : A_EAC3
Duration                                 : 1 h 0 min
Bit rate mode                            : Constant
Bit rate                                 : 640 kb/s
Channel(s)                               : 6 channels
Channel layout                           : L R C LFE Ls Rs
Sampling rate                            : 48.0 kHz
Frame rate                               : 31.250 FPS (1536 SPF)
Compression mode                         : Lossy
Stream size                              : 278 MiB (15%)
Language                                 : English
Service kind                             : Complete Main
Default                                  : Yes
Forced                                   : No
Complexity index                         : 16
Number of dynamic objects                : 15
Bed channel count                        : 1 channel
Bed channel configuration                : LFE

Text #1
ID                                       : 3
Format                                   : UTF-8
Codec ID                                 : S_TEXT/UTF8
Codec ID/Info                            : UTF-8 Plain Text
Duration                                 : 58 min 46 s
Bit rate                                 : 43 b/s
Frame rate                               : 0.157 FPS
Count of elements                        : 552
Stream size                              : 18.8 KiB (0%)
Language                                 : English (US)
Default                                  : No
Forced                                   : No

Text #2
ID                                       : 4
Format                                   : UTF-8
Codec ID                                 : S_TEXT/UTF8
Codec ID/Info                            : UTF-8 Plain Text
Duration                                 : 1 h 0 min
Bit rate                                 : 63 b/s
Frame rate                               : 0.253 FPS
Count of elements                        : 921
Stream size                              : 28.4 KiB (0%)
Title                                    : SDH
Language                                 : English (US)
Default                                  : No
Forced                                   : No

Text #3
ID                                       : 5
Format                                   : UTF-8
Codec ID                                 : S_TEXT/UTF8
Codec ID/Info                            : UTF-8 Plain Text
Duration                                 : 58 min 52 s
Bit rate                                 : 66 b/s
Frame rate                               : 0.151 FPS
Count of elements                        : 532
Stream size                              : 28.7 KiB (0%)
Language                                 : Bulgarian (BG)
Default                                  : No
Forced                                   : No

Text #4
ID                                       : 6
Format                                   : UTF-8
Codec ID                                 : S_TEXT/UTF8
Codec ID/Info                            : UTF-8 Plain Text
Duration                                 : 59 min 39 s
Bit rate                                 : 40 b/s
Frame rate                               : 0.154 FPS
Count of elements                        : 552
Stream size                              : 17.6 KiB (0%)
Language                                 : Czech (CZ)
Default                                  : No
Forced                                   : No

Text #5
ID                                       : 7
Format                                   : UTF-8
Codec ID                                 : S_TEXT/UTF8
Codec ID/Info                            : UTF-8 Plain Text
Duration                                 : 59 min 2 s
Bit rate                                 : 39 b/s
Frame rate                               : 0.131 FPS
Count of elements                        : 463
Stream size                              : 16.9 KiB (0%)
Language                                 : Danish (DK)
Default                                  : No
Forced                                   : No

Text #6
ID                                       : 8
Format                                   : UTF-8
Codec ID                                 : S_TEXT/UTF8
Codec ID/Info                            : UTF-8 Plain Text
Duration                                 : 58 min 43 s
Bit rate                                 : 41 b/s
Frame rate                               : 0.192 FPS
Count of elements                        : 678
Stream size                              : 17.9 KiB (0%)
Title                                    : Spanish (Latin America)
Language                                 : Spanish (Latin America)
Default                                  : No
Forced                                   : No

Text #7
ID                                       : 9
Format                                   : UTF-8
Codec ID                                 : S_TEXT/UTF8
Codec ID/Info                            : UTF-8 Plain Text
Duration                                 : 59 min 9 s
Bit rate                                 : 40 b/s
Frame rate                               : 0.166 FPS
Count of elements                        : 591
Stream size                              : 17.5 KiB (0%)
Title                                    : Spanish (Spain)
Language                                 : Spanish (ES)
Default                                  : No
Forced                                   : No

Text #8
ID                                       : 10
Format                                   : UTF-8
Codec ID                                 : S_TEXT/UTF8
Codec ID/Info                            : UTF-8 Plain Text
Duration                                 : 59 min 5 s
Bit rate                                 : 39 b/s
Frame rate                               : 0.131 FPS
Count of elements                        : 465
Stream size                              : 17.0 KiB (0%)
Language                                 : Estonian (EE)
Default                                  : No
Forced                                   : No

Text #9
ID                                       : 11
Format                                   : UTF-8
Codec ID                                 : S_TEXT/UTF8
Codec ID/Info                            : UTF-8 Plain Text
Duration                                 : 59 min 5 s
Bit rate                                 : 39 b/s
Frame rate                               : 0.134 FPS
Count of elements                        : 474
Stream size                              : 17.2 KiB (0%)
Language                                 : Finnish (FI)
Default                                  : No
Forced                                   : No

Text #10
ID                                       : 12
Format                                   : UTF-8
Codec ID                                 : S_TEXT/UTF8
Codec ID/Info                            : UTF-8 Plain Text
Duration                                 : 59 min 3 s
Bit rate                                 : 34 b/s
Frame rate                               : 0.144 FPS
Count of elements                        : 512
Stream size                              : 14.9 KiB (0%)
Language                                 : Croatian (HR)
Default                                  : No
Forced                                   : No

Text #11
ID                                       : 13
Format                                   : UTF-8
Codec ID                                 : S_TEXT/UTF8
Codec ID/Info                            : UTF-8 Plain Text
Duration                                 : 58 min 51 s
Bit rate                                 : 39 b/s
Frame rate                               : 0.159 FPS
Count of elements                        : 560
Stream size                              : 17.1 KiB (0%)
Language                                 : Hungarian (HU)
Default                                  : No
Forced                                   : No

Text #12
ID                                       : 14
Format                                   : UTF-8
Codec ID                                 : S_TEXT/UTF8
Codec ID/Info                            : UTF-8 Plain Text
Duration                                 : 59 min 5 s
Bit rate                                 : 37 b/s
Frame rate                               : 0.135 FPS
Count of elements                        : 480
Stream size                              : 16.2 KiB (0%)
Language                                 : Lithuanian (LT)
Default                                  : No
Forced                                   : No

Text #13
ID                                       : 15
Format                                   : UTF-8
Codec ID                                 : S_TEXT/UTF8
Codec ID/Info                            : UTF-8 Plain Text
Duration                                 : 59 min 5 s
Bit rate                                 : 40 b/s
Frame rate                               : 0.135 FPS
Count of elements                        : 480
Stream size                              : 17.5 KiB (0%)
Language                                 : Latvian (LV)
Default                                  : No
Forced                                   : No

Text #14
ID                                       : 16
Format                                   : UTF-8
Codec ID                                 : S_TEXT/UTF8
Codec ID/Info                            : UTF-8 Plain Text
Duration                                 : 59 min 3 s
Bit rate                                 : 58 b/s
Frame rate                               : 0.144 FPS
Count of elements                        : 512
Stream size                              : 25.2 KiB (0%)
Language                                 : Macedonian (MK)
Default                                  : No
Forced                                   : No

Text #15
ID                                       : 17
Format                                   : UTF-8
Codec ID                                 : S_TEXT/UTF8
Codec ID/Info                            : UTF-8 Plain Text
Duration                                 : 59 min 5 s
Bit rate                                 : 37 b/s
Frame rate                               : 0.127 FPS
Count of elements                        : 451
Stream size                              : 16.3 KiB (0%)
Language                                 : Dutch (NL)
Default                                  : No
Forced                                   : No

Text #16
ID                                       : 18
Format                                   : UTF-8
Codec ID                                 : S_TEXT/UTF8
Codec ID/Info                            : UTF-8 Plain Text
Duration                                 : 59 min 9 s
Bit rate                                 : 39 b/s
Frame rate                               : 0.130 FPS
Count of elements                        : 462
Stream size                              : 17.0 KiB (0%)
Language                                 : Norwegian (NO)
Default                                  : No
Forced                                   : No

Text #17
ID                                       : 19
Format                                   : UTF-8
Codec ID                                 : S_TEXT/UTF8
Codec ID/Info                            : UTF-8 Plain Text
Duration                                 : 59 min 29 s
Bit rate                                 : 29 b/s
Frame rate                               : 0.137 FPS
Count of elements                        : 488
Stream size                              : 13.0 KiB (0%)
Language                                 : Polish (PL)
Default                                  : No
Forced                                   : No

Text #18
ID                                       : 20
Format                                   : UTF-8
Codec ID                                 : S_TEXT/UTF8
Codec ID/Info                            : UTF-8 Plain Text
Duration                                 : 59 min 57 s
Bit rate                                 : 41 b/s
Frame rate                               : 0.193 FPS
Count of elements                        : 696
Stream size                              : 18.2 KiB (0%)
Title                                    : Portuguese (Brazil)
Language                                 : Portuguese (BR)
Default                                  : No
Forced                                   : No

Text #19
ID                                       : 21
Format                                   : UTF-8
Codec ID                                 : S_TEXT/UTF8
Codec ID/Info                            : UTF-8 Plain Text
Duration                                 : 59 min 5 s
Bit rate                                 : 40 b/s
Frame rate                               : 0.133 FPS
Count of elements                        : 471
Stream size                              : 17.4 KiB (0%)
Title                                    : Portuguese (Portugal)
Language                                 : Portuguese (PT)
Default                                  : No
Forced                                   : No

Text #20
ID                                       : 22
Format                                   : UTF-8
Codec ID                                 : S_TEXT/UTF8
Codec ID/Info                            : UTF-8 Plain Text
Duration                                 : 58 min 46 s
Bit rate                                 : 39 b/s
Frame rate                               : 0.156 FPS
Count of elements                        : 550
Stream size                              : 17.0 KiB (0%)
Language                                 : Romanian (RO)
Default                                  : No
Forced                                   : No

Text #21
ID                                       : 23
Format                                   : UTF-8
Codec ID                                 : S_TEXT/UTF8
Codec ID/Info                            : UTF-8 Plain Text
Duration                                 : 58 min 28 s
Bit rate                                 : 39 b/s
Frame rate                               : 0.156 FPS
Count of elements                        : 547
Stream size                              : 16.8 KiB (0%)
Language                                 : Slovak (SK)
Default                                  : No
Forced                                   : No

Text #22
ID                                       : 24
Format                                   : UTF-8
Codec ID                                 : S_TEXT/UTF8
Codec ID/Info                            : UTF-8 Plain Text
Duration                                 : 59 min 3 s
Bit rate                                 : 33 b/s
Frame rate                               : 0.144 FPS
Count of elements                        : 512
Stream size                              : 14.3 KiB (0%)
Language                                 : Slovenian (SI)
Default                                  : No
Forced                                   : No

Text #23
ID                                       : 25
Format                                   : UTF-8
Codec ID                                 : S_TEXT/UTF8
Codec ID/Info                            : UTF-8 Plain Text
Duration                                 : 59 min 3 s
Bit rate                                 : 33 b/s
Frame rate                               : 0.144 FPS
Count of elements                        : 512
Stream size                              : 14.6 KiB (0%)
Language                                 : Serbian-Latn-RS
Default                                  : No
Forced                                   : No

Text #24
ID                                       : 26
Format                                   : UTF-8
Codec ID                                 : S_TEXT/UTF8
Codec ID/Info                            : UTF-8 Plain Text
Duration                                 : 59 min 5 s
Bit rate                                 : 42 b/s
Frame rate                               : 0.130 FPS
Count of elements                        : 462
Stream size                              : 18.4 KiB (0%)
Language                                 : Swedish (SE)
Default                                  : No
Forced                                   : No

Menu
00:00:00.000                             : en:Chapter 1
00:03:25.705                             : en:Intro
00:04:40.406                             : en:Chapter 2
00:12:27.455                             : en:Chapter 3
00:24:30.469                             : en:Chapter 4
00:35:13.194                             : en:Chapter 5
00:47:15.249                             : en:Chapter 6
00:59:41.703                             : en:Credits
01:00:35.131                             : en:Chapter 7



Download
File Container: MKV
Video/Audio Codec: H264 (HIGH) EAC3
Video Resolution: 1280x640

1 Response to "[RR/NF/CU] True Detective S04E04 Night Country Part 4 720p AMZN WEB-DL DDP5 1 H 264-NTb (1.8GB)"
02/05/24
04:05:10
ReadyPlayerOne

Thank you!

Please Login to post a comment.
If you don't have any account, please Register.
  • Subscribe my Feeds
  • Facebook
Encoding Queue:  x264  x265

Latest Episodes

Popular Movies and TV Shows

  • S.W.A.T.
  • Blue Bloods
  • Fire Country
  • Firefox
  • The Late Game
  • Simon
  • Spaceman
  • Real Time with Bill Maher
  • Young Sheldon
  • The Rookie
  • Megamind vs. The Doom Syndicate
  • Lola
  • Masters of the Air
  • Halo
  • BMF
  • The Seeding
  • Alice in Terrorland
  • Dune: Part Two
  • Ghosts
  • Elsbeth
  • Hightown
  • Northern Comfort
  • Camp Pleasant Lake
  • The Chapel
  • Resident Alien

Recent Comments

  • ruf999:

    hanyou

  • uncabrian: If you can, please upload other seasons of "Eureka" in the same format and size. Much appr...
  • pr4455:

    hi this movie has no audio just commentry

  • asalan:

    please reupload.

  • asalan:

    reupload please.

  • newuser:

    need English Sub that Sync

  • Bud:

    Can we get a re-up on the clicknupload link please? Current link is dead.

Archives