Sign Up   |   Sign In  
The Walking Dead: The Ones Who LiveMercy FallsBelgravia: The Next ChapterNinja KamuiThe DepartedThe Hateful EightSaturday Night LiveRed QueenThe Imitation GameShamelessThe MartianThe Legend of Bagger VanceAdam and 6 EvesEinstein and the BombS.W.A.T.Young SheldonHaloWarrior QueenBlue BloodsFire CountryDune: Part TwoWonkaMasters of the AirSpacemanGhosts

Announcements

02/10

2024

1

Comments

True Detective S04E05 Night Country Part 5 720p AMZN WEB-DL DDP5 1 H 264-NTb
[RR/NF]
Size: 2.4GB mkv H264 (HIGH) / EAC3  HD  1280x640

True Detective
File Information
[img]http://lookpic.com/cdn/i2/t/0209202418541979-1.jpg[/img]
[img]http://lookpic.com/cdn/i2/t/0209202418541979-2.jpg[/img]
[img]http://lookpic.com/cdn/i2/t/0209202418541979-3.jpg[/img]

General
Unique ID                                : 232060128323928179041801177520795439599 (0xAE9527AE53391E5B56293B0EA9EE51EF)
Complete name                            : True.Detective.S04E05.Night.Country.Part.5.720p.AMZN.WEB-DL.DDP5.1.H.264-NTb.mkv
Format                                   : Matroska
Format version                           : Version 4
File size                                : 2.39 GiB
Duration                                 : 1 h 3 min
Overall bit rate                         : 5 435 kb/s
Frame rate                               : 23.976 FPS
Writing application                      : mkvmerge v81.0 ('Milliontown') 64-bit
Writing library                          : libebml v1.4.4 + libmatroska v1.7.1

Video
ID                                       : 1
Format                                   : AVC
Format/Info                              : Advanced Video Codec
Format profile                           : High@L3.1
Format settings                          : CABAC / 4 Ref Frames
Format settings, CABAC                   : Yes
Format settings, Reference frames        : 4 frames
Codec ID                                 : V_MPEG4/ISO/AVC
Duration                                 : 1 h 3 min
Bit rate mode                            : Constant
Bit rate                                 : 4 791 kb/s
Nominal bit rate                         : 6 000 kb/s
Width                                    : 1 280 pixels
Height                                   : 640 pixels
Display aspect ratio                     : 2.000
Frame rate mode                          : Constant
Frame rate                               : 23.976 (24000/1001) FPS
Color space                              : YUV
Chroma subsampling                       : 4:2:0
Bit depth                                : 8 bits
Scan type                                : Progressive
Bits/(Pixel*Frame)                       : 0.244
Stream size                              : 2.11 GiB (88%)
Default                                  : Yes
Forced                                   : No
Color range                              : Limited
Color primaries                          : BT.709
Transfer characteristics                 : BT.709
Matrix coefficients                      : BT.709

Audio
ID                                       : 2
Format                                   : E-AC-3 JOC
Format/Info                              : Enhanced AC-3 with Joint Object Coding
Commercial name                          : Dolby Digital Plus with Dolby Atmos
Codec ID                                 : A_EAC3
Duration                                 : 1 h 3 min
Bit rate mode                            : Constant
Bit rate                                 : 640 kb/s
Channel(s)                               : 6 channels
Channel layout                           : L R C LFE Ls Rs
Sampling rate                            : 48.0 kHz
Frame rate                               : 31.250 FPS (1536 SPF)
Compression mode                         : Lossy
Stream size                              : 289 MiB (12%)
Language                                 : English
Service kind                             : Complete Main
Default                                  : Yes
Forced                                   : No
Complexity index                         : 16
Number of dynamic objects                : 15
Bed channel count                        : 1 channel
Bed channel configuration                : LFE

Text #1
ID                                       : 3
Format                                   : UTF-8
Codec ID                                 : S_TEXT/UTF8
Codec ID/Info                            : UTF-8 Plain Text
Duration                                 : 1 h 1 min
Bit rate                                 : 45 b/s
Frame rate                               : 0.160 FPS
Count of elements                        : 589
Stream size                              : 20.6 KiB (0%)
Language                                 : English (US)
Default                                  : No
Forced                                   : No

Text #2
ID                                       : 4
Format                                   : UTF-8
Codec ID                                 : S_TEXT/UTF8
Codec ID/Info                            : UTF-8 Plain Text
Duration                                 : 1 h 2 min
Bit rate                                 : 60 b/s
Frame rate                               : 0.249 FPS
Count of elements                        : 939
Stream size                              : 27.6 KiB (0%)
Title                                    : SDH
Language                                 : English (US)
Default                                  : No
Forced                                   : No

Text #3
ID                                       : 5
Format                                   : UTF-8
Codec ID                                 : S_TEXT/UTF8
Codec ID/Info                            : UTF-8 Plain Text
Duration                                 : 1 h 1 min
Bit rate                                 : 70 b/s
Frame rate                               : 0.156 FPS
Count of elements                        : 575
Stream size                              : 31.6 KiB (0%)
Language                                 : Bulgarian (BG)
Default                                  : No
Forced                                   : No

Text #4
ID                                       : 6
Format                                   : UTF-8
Codec ID                                 : S_TEXT/UTF8
Codec ID/Info                            : UTF-8 Plain Text
Duration                                 : 1 h 2 min
Bit rate                                 : 43 b/s
Frame rate                               : 0.163 FPS
Count of elements                        : 608
Stream size                              : 19.8 KiB (0%)
Language                                 : Czech (CZ)
Default                                  : No
Forced                                   : No

Text #5
ID                                       : 7
Format                                   : UTF-8
Codec ID                                 : S_TEXT/UTF8
Codec ID/Info                            : UTF-8 Plain Text
Duration                                 : 1 h 1 min
Bit rate                                 : 42 b/s
Frame rate                               : 0.149 FPS
Count of elements                        : 546
Stream size                              : 19.0 KiB (0%)
Language                                 : Danish (DK)
Default                                  : No
Forced                                   : No

Text #6
ID                                       : 8
Format                                   : UTF-8
Codec ID                                 : S_TEXT/UTF8
Codec ID/Info                            : UTF-8 Plain Text
Duration                                 : 1 h 0 min
Bit rate                                 : 43 b/s
Frame rate                               : 0.199 FPS
Count of elements                        : 722
Stream size                              : 19.4 KiB (0%)
Title                                    : Spanish (Latin America)
Language                                 : Spanish (Latin America)
Default                                  : No
Forced                                   : No

Text #7
ID                                       : 9
Format                                   : UTF-8
Codec ID                                 : S_TEXT/UTF8
Codec ID/Info                            : UTF-8 Plain Text
Duration                                 : 1 h 0 min
Bit rate                                 : 44 b/s
Frame rate                               : 0.182 FPS
Count of elements                        : 663
Stream size                              : 19.5 KiB (0%)
Title                                    : Spanish (Spain)
Language                                 : Spanish (ES)
Default                                  : No
Forced                                   : No

Text #8
ID                                       : 10
Format                                   : UTF-8
Codec ID                                 : S_TEXT/UTF8
Codec ID/Info                            : UTF-8 Plain Text
Duration                                 : 1 h 1 min
Bit rate                                 : 41 b/s
Frame rate                               : 0.147 FPS
Count of elements                        : 542
Stream size                              : 18.7 KiB (0%)
Language                                 : Estonian (EE)
Default                                  : No
Forced                                   : No

Text #9
ID                                       : 11
Format                                   : UTF-8
Codec ID                                 : S_TEXT/UTF8
Codec ID/Info                            : UTF-8 Plain Text
Duration                                 : 1 h 1 min
Bit rate                                 : 47 b/s
Frame rate                               : 0.147 FPS
Count of elements                        : 540
Stream size                              : 21.3 KiB (0%)
Language                                 : Finnish (FI)
Default                                  : No
Forced                                   : No

Text #10
ID                                       : 12
Format                                   : UTF-8
Codec ID                                 : S_TEXT/UTF8
Codec ID/Info                            : UTF-8 Plain Text
Duration                                 : 1 h 1 min
Bit rate                                 : 37 b/s
Frame rate                               : 0.142 FPS
Count of elements                        : 520
Stream size                              : 16.8 KiB (0%)
Language                                 : Croatian (HR)
Default                                  : No
Forced                                   : No

Text #11
ID                                       : 13
Format                                   : UTF-8
Codec ID                                 : S_TEXT/UTF8
Codec ID/Info                            : UTF-8 Plain Text
Duration                                 : 1 h 1 min
Bit rate                                 : 42 b/s
Frame rate                               : 0.162 FPS
Count of elements                        : 595
Stream size                              : 19.0 KiB (0%)
Language                                 : Hungarian (HU)
Default                                  : No
Forced                                   : No

Text #12
ID                                       : 14
Format                                   : UTF-8
Codec ID                                 : S_TEXT/UTF8
Codec ID/Info                            : UTF-8 Plain Text
Duration                                 : 1 h 1 min
Bit rate                                 : 38 b/s
Frame rate                               : 0.149 FPS
Count of elements                        : 547
Stream size                              : 17.5 KiB (0%)
Language                                 : Lithuanian (LT)
Default                                  : No
Forced                                   : No

Text #13
ID                                       : 15
Format                                   : UTF-8
Codec ID                                 : S_TEXT/UTF8
Codec ID/Info                            : UTF-8 Plain Text
Duration                                 : 1 h 1 min
Bit rate                                 : 41 b/s
Frame rate                               : 0.149 FPS
Count of elements                        : 546
Stream size                              : 18.8 KiB (0%)
Language                                 : Latvian (LV)
Default                                  : No
Forced                                   : No

Text #14
ID                                       : 16
Format                                   : UTF-8
Codec ID                                 : S_TEXT/UTF8
Codec ID/Info                            : UTF-8 Plain Text
Duration                                 : 1 h 1 min
Bit rate                                 : 63 b/s
Frame rate                               : 0.142 FPS
Count of elements                        : 520
Stream size                              : 28.5 KiB (0%)
Language                                 : Macedonian (MK)
Default                                  : No
Forced                                   : No

Text #15
ID                                       : 17
Format                                   : UTF-8
Codec ID                                 : S_TEXT/UTF8
Codec ID/Info                            : UTF-8 Plain Text
Duration                                 : 1 h 1 min
Bit rate                                 : 42 b/s
Frame rate                               : 0.149 FPS
Count of elements                        : 546
Stream size                              : 18.8 KiB (0%)
Language                                 : Dutch (NL)
Default                                  : No
Forced                                   : No

Text #16
ID                                       : 18
Format                                   : UTF-8
Codec ID                                 : S_TEXT/UTF8
Codec ID/Info                            : UTF-8 Plain Text
Duration                                 : 1 h 1 min
Bit rate                                 : 41 b/s
Frame rate                               : 0.143 FPS
Count of elements                        : 525
Stream size                              : 18.8 KiB (0%)
Language                                 : Norwegian (NO)
Default                                  : No
Forced                                   : No

Text #17
ID                                       : 19
Format                                   : UTF-8
Codec ID                                 : S_TEXT/UTF8
Codec ID/Info                            : UTF-8 Plain Text
Duration                                 : 1 h 1 min
Bit rate                                 : 34 b/s
Frame rate                               : 0.144 FPS
Count of elements                        : 531
Stream size                              : 15.5 KiB (0%)
Language                                 : Polish (PL)
Default                                  : No
Forced                                   : No

Text #18
ID                                       : 20
Format                                   : UTF-8
Codec ID                                 : S_TEXT/UTF8
Codec ID/Info                            : UTF-8 Plain Text
Duration                                 : 1 h 2 min
Bit rate                                 : 44 b/s
Frame rate                               : 0.207 FPS
Count of elements                        : 771
Stream size                              : 20.3 KiB (0%)
Title                                    : Portuguese (Brazil)
Language                                 : Portuguese (BR)
Default                                  : No
Forced                                   : No

Text #19
ID                                       : 21
Format                                   : UTF-8
Codec ID                                 : S_TEXT/UTF8
Codec ID/Info                            : UTF-8 Plain Text
Duration                                 : 1 h 1 min
Bit rate                                 : 42 b/s
Frame rate                               : 0.147 FPS
Count of elements                        : 541
Stream size                              : 19.2 KiB (0%)
Title                                    : Portuguese (Portugal)
Language                                 : Portuguese (PT)
Default                                  : No
Forced                                   : No

Text #20
ID                                       : 22
Format                                   : UTF-8
Codec ID                                 : S_TEXT/UTF8
Codec ID/Info                            : UTF-8 Plain Text
Duration                                 : 1 h 1 min
Bit rate                                 : 42 b/s
Frame rate                               : 0.158 FPS
Count of elements                        : 582
Stream size                              : 18.9 KiB (0%)
Language                                 : Romanian (RO)
Default                                  : No
Forced                                   : No

Text #21
ID                                       : 23
Format                                   : UTF-8
Codec ID                                 : S_TEXT/UTF8
Codec ID/Info                            : UTF-8 Plain Text
Duration                                 : 1 h 0 min
Bit rate                                 : 41 b/s
Frame rate                               : 0.163 FPS
Count of elements                        : 593
Stream size                              : 18.5 KiB (0%)
Language                                 : Slovak (SK)
Default                                  : No
Forced                                   : No

Text #22
ID                                       : 24
Format                                   : UTF-8
Codec ID                                 : S_TEXT/UTF8
Codec ID/Info                            : UTF-8 Plain Text
Duration                                 : 1 h 1 min
Bit rate                                 : 35 b/s
Frame rate                               : 0.142 FPS
Count of elements                        : 521
Stream size                              : 16.1 KiB (0%)
Language                                 : Slovenian (SI)
Default                                  : No
Forced                                   : No

Text #23
ID                                       : 25
Format                                   : UTF-8
Codec ID                                 : S_TEXT/UTF8
Codec ID/Info                            : UTF-8 Plain Text
Duration                                 : 1 h 1 min
Bit rate                                 : 37 b/s
Frame rate                               : 0.142 FPS
Count of elements                        : 520
Stream size                              : 16.6 KiB (0%)
Language                                 : Serbian-Latn-RS
Default                                  : No
Forced                                   : No

Text #24
ID                                       : 26
Format                                   : UTF-8
Codec ID                                 : S_TEXT/UTF8
Codec ID/Info                            : UTF-8 Plain Text
Duration                                 : 1 h 1 min
Bit rate                                 : 44 b/s
Frame rate                               : 0.143 FPS
Count of elements                        : 524
Stream size                              : 20.1 KiB (0%)
Language                                 : Swedish (SE)
Default                                  : No
Forced                                   : No

Menu
00:00:00.000                             : en:Chapter 1
00:02:24.686                             : en:Intro
00:03:30.336                             : en:Chapter 2
00:12:38.424                             : en:Chapter 3
00:26:52.068                             : en:Chapter 4
00:40:42.106                             : en:Chapter 5
00:50:22.602                             : en:Chapter 6
01:02:04.637                             : en:Credits
01:02:58.066                             : en:Chapter 7



Download
File Container: MKV
Video/Audio Codec: H264 (HIGH) EAC3
Video Resolution: 1280x640

1 Response to "[RR/NF] True Detective S04E05 Night Country Part 5 720p AMZN WEB-DL DDP5 1 H 264-NTb (2.4GB)"
02/10/24
05:09:10
ReadyPlayerOne

Thank you!

Please Login to post a comment.
If you don't have any account, please Register.
  • Subscribe my Feeds
  • Facebook
Encoding Queue:  x264  x265

Latest Episodes

Popular Movies and TV Shows

  • The Walking Dead: The Ones Who Live
  • Mercy Falls
  • Belgravia: The Next Chapter
  • Ninja Kamui
  • The Departed
  • The Hateful Eight
  • Saturday Night Live
  • Red Queen
  • The Imitation Game
  • Shameless
  • The Martian
  • The Legend of Bagger Vance
  • Adam and 6 Eves
  • Einstein and the Bomb
  • S.W.A.T.
  • Young Sheldon
  • Halo
  • Warrior Queen
  • Blue Bloods
  • Fire Country
  • Dune: Part Two
  • Wonka
  • Masters of the Air
  • Spaceman
  • Ghosts

Recent Comments

  • PROFessorMorrynarty:

    Any chance of a version with English subtitles please?

  • RMadcow:

    This release has German Audio and Subtitles

  • Bud:

    Any chance of a re-up on the clicknupload link?

  • ruf999:

    hanyou

  • uncabrian: If you can, please upload other seasons of "Eureka" in the same format and size. Much appr...
  • pr4455:

    hi this movie has no audio just commentry

  • asalan:

    please reupload.

  • asalan:

    reupload please.

  • newuser:

    need English Sub that Sync

Archives