Sign Up   |   Sign In  
My Adventures with SupermanChristmas Is CanceledThe Body StealersSatan's ChildrenTop Chef: The Dish with KishCosta!!Mayor of KingstownInterview with the VampireHotel CocaineDaaaaaali!OctopussyLook to the LightLadies in BlackBilly the KidWalkerKung Fu HustleLicence to KillThere's Something About MaryWWE NXTThe Loud HouseThe Bold and the BeautifulVice News Presents: Mass Shooting AmericaInside Out 2My Sexual Abuse: The SitcomThe Daily Show

Announcements

05/23

2024

1

Comments

Trying S04E01 The Send-Off 720p ATVP WEB-DL DDP5 1 H 264-NTb
[RR/NF/CU]
Size: 731MB mkv H264 (HIGH) / EAC3  HD  1356x678

Trying
File Information
[img]http://lookpic.com/cdn/i2/t/0523202415134909-1.jpg[/img]
[img]http://lookpic.com/cdn/i2/t/0523202415134909-2.jpg[/img]
[img]http://lookpic.com/cdn/i2/t/0523202415134909-3.jpg[/img]

General
Unique ID                                : 13994768234488695973797014147073986585 (0xA874B589AE6035FBFDCE93270C25019)
Complete name                            : Trying S04E01 The Send-Off 720p ATVP WEB-DL DDP5 1 H 264-NTb.mkv
Format                                   : Matroska
Format version                           : Version 4
File size                                : 731 MiB
Duration                                 : 28 min 23 s
Overall bit rate                         : 3 601 kb/s
Frame rate                               : 23.976 FPS
Writing application                      : mkvmerge v84.0 ('Sleeper') 64-bit
Writing library                          : libebml v1.4.5 + libmatroska v1.7.1

Video
ID                                       : 1
Format                                   : AVC
Format/Info                              : Advanced Video Codec
Format profile                           : High@L3.2
Format settings                          : CABAC / 5 Ref Frames
Format settings, CABAC                   : Yes
Format settings, Reference frames        : 5 frames
Codec ID                                 : V_MPEG4/ISO/AVC
Duration                                 : 28 min 23 s
Bit rate                                 : 2 825 kb/s
Width                                    : 1 356 pixels
Height                                   : 678 pixels
Display aspect ratio                     : 2.000
Frame rate mode                          : Constant
Frame rate                               : 23.976 (24000/1001) FPS
Color space                              : YUV
Chroma subsampling                       : 4:2:0
Bit depth                                : 8 bits
Scan type                                : Progressive
Bits/(Pixel*Frame)                       : 0.128
Stream size                              : 574 MiB (78%)
Default                                  : Yes
Forced                                   : No
Color range                              : Limited
Color primaries                          : BT.709
Transfer characteristics                 : BT.709
Matrix coefficients                      : BT.709

Audio
ID                                       : 2
Format                                   : E-AC-3 JOC
Format/Info                              : Enhanced AC-3 with Joint Object Coding
Commercial name                          : Dolby Digital Plus with Dolby Atmos
Codec ID                                 : A_EAC3
Duration                                 : 28 min 23 s
Bit rate mode                            : Constant
Bit rate                                 : 768 kb/s
Channel(s)                               : 6 channels
Channel layout                           : L R C LFE Ls Rs
Sampling rate                            : 48.0 kHz
Frame rate                               : 31.250 FPS (1536 SPF)
Compression mode                         : Lossy
Stream size                              : 156 MiB (21%)
Language                                 : English
Service kind                             : Complete Main
Default                                  : Yes
Forced                                   : No
Complexity index                         : 16
Number of dynamic objects                : 15
Bed channel count                        : 1 channel
Bed channel configuration                : LFE

Text #1
ID                                       : 3
Format                                   : UTF-8
Codec ID                                 : S_TEXT/UTF8
Codec ID/Info                            : UTF-8 Plain Text
Duration                                 : 26 min 19 s
Bit rate                                 : 72 b/s
Frame rate                               : 0.265 FPS
Count of elements                        : 418
Stream size                              : 13.9 KiB (0%)
Language                                 : English
Default                                  : No
Forced                                   : No

Text #2
ID                                       : 4
Format                                   : UTF-8
Codec ID                                 : S_TEXT/UTF8
Codec ID/Info                            : UTF-8 Plain Text
Duration                                 : 26 min 42 s
Bit rate                                 : 81 b/s
Frame rate                               : 0.285 FPS
Count of elements                        : 456
Stream size                              : 16.0 KiB (0%)
Title                                    : SDH
Language                                 : English
Default                                  : No
Forced                                   : No

Text #3
ID                                       : 5
Format                                   : UTF-8
Codec ID                                 : S_TEXT/UTF8
Codec ID/Info                            : UTF-8 Plain Text
Duration                                 : 28 min 9 s
Bit rate                                 : 96 b/s
Frame rate                               : 0.256 FPS
Count of elements                        : 432
Stream size                              : 19.9 KiB (0%)
Language                                 : Arabic
Default                                  : No
Forced                                   : No

Text #4
ID                                       : 6
Format                                   : UTF-8
Codec ID                                 : S_TEXT/UTF8
Codec ID/Info                            : UTF-8 Plain Text
Duration                                 : 28 min 9 s
Bit rate                                 : 88 b/s
Frame rate                               : 0.203 FPS
Count of elements                        : 343
Stream size                              : 18.2 KiB (0%)
Language                                 : Bulgarian
Default                                  : No
Forced                                   : No

Text #5
ID                                       : 7
Format                                   : UTF-8
Codec ID                                 : S_TEXT/UTF8
Codec ID/Info                            : UTF-8 Plain Text
Duration                                 : 28 min 9 s
Bit rate                                 : 59 b/s
Frame rate                               : 0.257 FPS
Count of elements                        : 434
Stream size                              : 12.2 KiB (0%)
Title                                    : Chinese (Simplified)
Language                                 : Mandarin (Hans)
Default                                  : No
Forced                                   : No

Text #6
ID                                       : 8
Format                                   : UTF-8
Codec ID                                 : S_TEXT/UTF8
Codec ID/Info                            : UTF-8 Plain Text
Duration                                 : 28 min 9 s
Bit rate                                 : 59 b/s
Frame rate                               : 0.258 FPS
Count of elements                        : 436
Stream size                              : 12.3 KiB (0%)
Title                                    : Chinese (Traditional)
Language                                 : Mandarin (Hant)
Default                                  : No
Forced                                   : No

Text #7
ID                                       : 9
Format                                   : UTF-8
Codec ID                                 : S_TEXT/UTF8
Codec ID/Info                            : UTF-8 Plain Text
Duration                                 : 28 min 9 s
Bit rate                                 : 58 b/s
Frame rate                               : 0.245 FPS
Count of elements                        : 414
Stream size                              : 12.2 KiB (0%)
Language                                 : Czech
Default                                  : No
Forced                                   : No

Text #8
ID                                       : 10
Format                                   : UTF-8
Codec ID                                 : S_TEXT/UTF8
Codec ID/Info                            : UTF-8 Plain Text
Duration                                 : 28 min 9 s
Bit rate                                 : 61 b/s
Frame rate                               : 0.207 FPS
Count of elements                        : 350
Stream size                              : 12.6 KiB (0%)
Language                                 : Danish
Default                                  : No
Forced                                   : No

Text #9
ID                                       : 11
Format                                   : UTF-8
Codec ID                                 : S_TEXT/UTF8
Codec ID/Info                            : UTF-8 Plain Text
Duration                                 : 27 min 28 s
Bit rate                                 : 65 b/s
Frame rate                               : 0.257 FPS
Count of elements                        : 423
Stream size                              : 13.2 KiB (0%)
Language                                 : German
Default                                  : No
Forced                                   : No

Text #10
ID                                       : 12
Format                                   : UTF-8
Codec ID                                 : S_TEXT/UTF8
Codec ID/Info                            : UTF-8 Plain Text
Duration                                 : 28 min 9 s
Bit rate                                 : 106 b/s
Frame rate                               : 0.244 FPS
Count of elements                        : 413
Stream size                              : 22.0 KiB (0%)
Language                                 : Greek
Default                                  : No
Forced                                   : No

Text #11
ID                                       : 13
Format                                   : UTF-8
Codec ID                                 : S_TEXT/UTF8
Codec ID/Info                            : UTF-8 Plain Text
Duration                                 : 28 min 9 s
Bit rate                                 : 62 b/s
Frame rate                               : 0.253 FPS
Count of elements                        : 427
Stream size                              : 13.0 KiB (0%)
Title                                    : Spanish (Latin America)
Language                                 : Spanish (Latin America)
Default                                  : No
Forced                                   : No

Text #12
ID                                       : 14
Format                                   : UTF-8
Codec ID                                 : S_TEXT/UTF8
Codec ID/Info                            : UTF-8 Plain Text
Duration                                 : 28 min 9 s
Bit rate                                 : 65 b/s
Frame rate                               : 0.247 FPS
Count of elements                        : 418
Stream size                              : 13.5 KiB (0%)
Title                                    : Spanish (Spain)
Language                                 : Spanish (ES)
Default                                  : No
Forced                                   : No

Text #13
ID                                       : 15
Format                                   : UTF-8
Codec ID                                 : S_TEXT/UTF8
Codec ID/Info                            : UTF-8 Plain Text
Duration                                 : 28 min 9 s
Bit rate                                 : 61 b/s
Frame rate                               : 0.239 FPS
Count of elements                        : 404
Stream size                              : 12.7 KiB (0%)
Language                                 : Estonian
Default                                  : No
Forced                                   : No

Text #14
ID                                       : 16
Format                                   : UTF-8
Codec ID                                 : S_TEXT/UTF8
Codec ID/Info                            : UTF-8 Plain Text
Duration                                 : 28 min 9 s
Bit rate                                 : 62 b/s
Frame rate                               : 0.240 FPS
Count of elements                        : 405
Stream size                              : 12.9 KiB (0%)
Language                                 : Finnish
Default                                  : No
Forced                                   : No

Text #15
ID                                       : 17
Format                                   : UTF-8
Codec ID                                 : S_TEXT/UTF8
Codec ID/Info                            : UTF-8 Plain Text
Duration                                 : 27 min 27 s
Bit rate                                 : 57 b/s
Frame rate                               : 0.269 FPS
Count of elements                        : 444
Stream size                              : 11.5 KiB (0%)
Title                                    : French (Canada)
Language                                 : French (CA)
Default                                  : No
Forced                                   : No

Text #16
ID                                       : 18
Format                                   : UTF-8
Codec ID                                 : S_TEXT/UTF8
Codec ID/Info                            : UTF-8 Plain Text
Duration                                 : 27 min 27 s
Bit rate                                 : 57 b/s
Frame rate                               : 0.269 FPS
Count of elements                        : 443
Stream size                              : 11.5 KiB (0%)
Title                                    : French (France)
Language                                 : French (FR)
Default                                  : No
Forced                                   : No

Text #17
ID                                       : 19
Format                                   : UTF-8
Codec ID                                 : S_TEXT/UTF8
Codec ID/Info                            : UTF-8 Plain Text
Duration                                 : 28 min 9 s
Bit rate                                 : 89 b/s
Frame rate                               : 0.258 FPS
Count of elements                        : 435
Stream size                              : 18.4 KiB (0%)
Language                                 : Hebrew
Default                                  : No
Forced                                   : No

Text #18
ID                                       : 20
Format                                   : UTF-8
Codec ID                                 : S_TEXT/UTF8
Codec ID/Info                            : UTF-8 Plain Text
Duration                                 : 28 min 9 s
Bit rate                                 : 179 b/s
Frame rate                               : 0.258 FPS
Count of elements                        : 436
Stream size                              : 37.1 KiB (0%)
Language                                 : Hindi
Default                                  : No
Forced                                   : No

Text #19
ID                                       : 21
Format                                   : UTF-8
Codec ID                                 : S_TEXT/UTF8
Codec ID/Info                            : UTF-8 Plain Text
Duration                                 : 28 min 9 s
Bit rate                                 : 66 b/s
Frame rate                               : 0.255 FPS
Count of elements                        : 431
Stream size                              : 13.8 KiB (0%)
Language                                 : Hungarian
Default                                  : No
Forced                                   : No

Text #20
ID                                       : 22
Format                                   : UTF-8
Codec ID                                 : S_TEXT/UTF8
Codec ID/Info                            : UTF-8 Plain Text
Duration                                 : 28 min 9 s
Bit rate                                 : 66 b/s
Frame rate                               : 0.253 FPS
Count of elements                        : 428
Stream size                              : 13.6 KiB (0%)
Language                                 : Indonesian
Default                                  : No
Forced                                   : No

Text #21
ID                                       : 23
Format                                   : UTF-8
Codec ID                                 : S_TEXT/UTF8
Codec ID/Info                            : UTF-8 Plain Text
Duration                                 : 28 min 7 s
Bit rate                                 : 61 b/s
Frame rate                               : 0.236 FPS
Count of elements                        : 399
Stream size                              : 12.7 KiB (0%)
Language                                 : Italian
Default                                  : No
Forced                                   : No

Text #22
ID                                       : 24
Format                                   : UTF-8
Codec ID                                 : S_TEXT/UTF8
Codec ID/Info                            : UTF-8 Plain Text
Duration                                 : 28 min 12 s
Bit rate                                 : 52 b/s
Frame rate                               : 0.257 FPS
Count of elements                        : 435
Stream size                              : 10.7 KiB (0%)
Language                                 : Japanese
Default                                  : No
Forced                                   : No

Text #23
ID                                       : 25
Format                                   : UTF-8
Codec ID                                 : S_TEXT/UTF8
Codec ID/Info                            : UTF-8 Plain Text
Duration                                 : 28 min 9 s
Bit rate                                 : 69 b/s
Frame rate                               : 0.257 FPS
Count of elements                        : 434
Stream size                              : 14.3 KiB (0%)
Language                                 : Korean
Default                                  : No
Forced                                   : No

Text #24
ID                                       : 26
Format                                   : UTF-8
Codec ID                                 : S_TEXT/UTF8
Codec ID/Info                            : UTF-8 Plain Text
Duration                                 : 28 min 9 s
Bit rate                                 : 62 b/s
Frame rate                               : 0.251 FPS
Count of elements                        : 424
Stream size                              : 12.8 KiB (0%)
Language                                 : Lithuanian
Default                                  : No
Forced                                   : No

Text #25
ID                                       : 27
Format                                   : UTF-8
Codec ID                                 : S_TEXT/UTF8
Codec ID/Info                            : UTF-8 Plain Text
Duration                                 : 28 min 9 s
Bit rate                                 : 65 b/s
Frame rate                               : 0.243 FPS
Count of elements                        : 411
Stream size                              : 13.5 KiB (0%)
Language                                 : Latvian
Default                                  : No
Forced                                   : No

Text #26
ID                                       : 28
Format                                   : UTF-8
Codec ID                                 : S_TEXT/UTF8
Codec ID/Info                            : UTF-8 Plain Text
Duration                                 : 28 min 9 s
Bit rate                                 : 66 b/s
Frame rate                               : 0.253 FPS
Count of elements                        : 428
Stream size                              : 13.8 KiB (0%)
Language                                 : Malay
Default                                  : No
Forced                                   : No

Text #27
ID                                       : 29
Format                                   : UTF-8
Codec ID                                 : S_TEXT/UTF8
Codec ID/Info                            : UTF-8 Plain Text
Duration                                 : 28 min 9 s
Bit rate                                 : 56 b/s
Frame rate                               : 0.209 FPS
Count of elements                        : 353
Stream size                              : 11.7 KiB (0%)
Language                                 : Dutch
Default                                  : No
Forced                                   : No

Text #28
ID                                       : 30
Format                                   : UTF-8
Codec ID                                 : S_TEXT/UTF8
Codec ID/Info                            : UTF-8 Plain Text
Duration                                 : 28 min 9 s
Bit rate                                 : 56 b/s
Frame rate                               : 0.207 FPS
Count of elements                        : 350
Stream size                              : 11.6 KiB (0%)
Language                                 : Norwegian
Default                                  : No
Forced                                   : No

Text #29
ID                                       : 31
Format                                   : UTF-8
Codec ID                                 : S_TEXT/UTF8
Codec ID/Info                            : UTF-8 Plain Text
Duration                                 : 28 min 9 s
Bit rate                                 : 57 b/s
Frame rate                               : 0.236 FPS
Count of elements                        : 398
Stream size                              : 11.9 KiB (0%)
Language                                 : Polish
Default                                  : No
Forced                                   : No

Text #30
ID                                       : 32
Format                                   : UTF-8
Codec ID                                 : S_TEXT/UTF8
Codec ID/Info                            : UTF-8 Plain Text
Duration                                 : 28 min 9 s
Bit rate                                 : 61 b/s
Frame rate                               : 0.247 FPS
Count of elements                        : 418
Stream size                              : 12.8 KiB (0%)
Title                                    : Portuguese
Language                                 : Portuguese
Default                                  : No
Forced                                   : No

Text #31
ID                                       : 33
Format                                   : UTF-8
Codec ID                                 : S_TEXT/UTF8
Codec ID/Info                            : UTF-8 Plain Text
Duration                                 : 28 min 9 s
Bit rate                                 : 58 b/s
Frame rate                               : 0.240 FPS
Count of elements                        : 405
Stream size                              : 12.2 KiB (0%)
Title                                    : Portuguese (Brazil)
Language                                 : Portuguese (BR)
Default                                  : No
Forced                                   : No

Text #32
ID                                       : 34
Format                                   : UTF-8
Codec ID                                 : S_TEXT/UTF8
Codec ID/Info                            : UTF-8 Plain Text
Duration                                 : 28 min 9 s
Bit rate                                 : 96 b/s
Frame rate                               : 0.248 FPS
Count of elements                        : 419
Stream size                              : 19.8 KiB (0%)
Language                                 : Russian
Default                                  : No
Forced                                   : No

Text #33
ID                                       : 35
Format                                   : UTF-8
Codec ID                                 : S_TEXT/UTF8
Codec ID/Info                            : UTF-8 Plain Text
Duration                                 : 28 min 9 s
Bit rate                                 : 59 b/s
Frame rate                               : 0.255 FPS
Count of elements                        : 430
Stream size                              : 12.3 KiB (0%)
Language                                 : Slovak
Default                                  : No
Forced                                   : No

Text #34
ID                                       : 36
Format                                   : UTF-8
Codec ID                                 : S_TEXT/UTF8
Codec ID/Info                            : UTF-8 Plain Text
Duration                                 : 28 min 9 s
Bit rate                                 : 54 b/s
Frame rate                               : 0.228 FPS
Count of elements                        : 385
Stream size                              : 11.2 KiB (0%)
Language                                 : Slovenian
Default                                  : No
Forced                                   : No

Text #35
ID                                       : 37
Format                                   : UTF-8
Codec ID                                 : S_TEXT/UTF8
Codec ID/Info                            : UTF-8 Plain Text
Duration                                 : 28 min 9 s
Bit rate                                 : 61 b/s
Frame rate                               : 0.239 FPS
Count of elements                        : 404
Stream size                              : 12.7 KiB (0%)
Language                                 : Swedish
Default                                  : No
Forced                                   : No

Text #36
ID                                       : 38
Format                                   : UTF-8
Codec ID                                 : S_TEXT/UTF8
Codec ID/Info                            : UTF-8 Plain Text
Duration                                 : 28 min 9 s
Bit rate                                 : 215 b/s
Frame rate                               : 0.258 FPS
Count of elements                        : 435
Stream size                              : 44.4 KiB (0%)
Language                                 : Tamil
Default                                  : No
Forced                                   : No

Text #37
ID                                       : 39
Format                                   : UTF-8
Codec ID                                 : S_TEXT/UTF8
Codec ID/Info                            : UTF-8 Plain Text
Duration                                 : 28 min 9 s
Bit rate                                 : 194 b/s
Frame rate                               : 0.258 FPS
Count of elements                        : 435
Stream size                              : 40.2 KiB (0%)
Language                                 : Telugu
Default                                  : No
Forced                                   : No

Text #38
ID                                       : 40
Format                                   : UTF-8
Codec ID                                 : S_TEXT/UTF8
Codec ID/Info                            : UTF-8 Plain Text
Duration                                 : 28 min 9 s
Bit rate                                 : 157 b/s
Frame rate                               : 0.258 FPS
Count of elements                        : 435
Stream size                              : 32.5 KiB (0%)
Language                                 : Thai
Default                                  : No
Forced                                   : No

Text #39
ID                                       : 41
Format                                   : UTF-8
Codec ID                                 : S_TEXT/UTF8
Codec ID/Info                            : UTF-8 Plain Text
Duration                                 : 28 min 9 s
Bit rate                                 : 62 b/s
Frame rate                               : 0.229 FPS
Count of elements                        : 387
Stream size                              : 12.8 KiB (0%)
Language                                 : Turkish
Default                                  : No
Forced                                   : No

Text #40
ID                                       : 42
Format                                   : UTF-8
Codec ID                                 : S_TEXT/UTF8
Codec ID/Info                            : UTF-8 Plain Text
Duration                                 : 28 min 9 s
Bit rate                                 : 100 b/s
Frame rate                               : 0.258 FPS
Count of elements                        : 436
Stream size                              : 20.7 KiB (0%)
Language                                 : Ukrainian
Default                                  : No
Forced                                   : No

Text #41
ID                                       : 43
Format                                   : UTF-8
Codec ID                                 : S_TEXT/UTF8
Codec ID/Info                            : UTF-8 Plain Text
Duration                                 : 28 min 9 s
Bit rate                                 : 81 b/s
Frame rate                               : 0.252 FPS
Count of elements                        : 426
Stream size                              : 16.7 KiB (0%)
Language                                 : Vietnamese
Default                                  : No
Forced                                   : No

Text #42
ID                                       : 44
Format                                   : UTF-8
Codec ID                                 : S_TEXT/UTF8
Codec ID/Info                            : UTF-8 Plain Text
Duration                                 : 28 min 9 s
Bit rate                                 : 57 b/s
Frame rate                               : 0.258 FPS
Count of elements                        : 436
Stream size                              : 11.9 KiB (0%)
Title                                    : Cantonese (Traditional)
Language                                 : Cantonese (Hant)
Default                                  : No
Forced                                   : No



Download
File Container: MKV
Video/Audio Codec: H264 (HIGH) EAC3
Video Resolution: 1356x678

1 Response to "[RR/NF/CU] Trying S04E01 The Send-Off 720p ATVP WEB-DL DDP5 1 H 264-NTb (731MB)"
05/23/24
17:33:12
ReadyPlayerOne

Thank You

Please Login to post a comment.
If you don't have any account, please Register.
  • Subscribe my Feeds
  • Facebook
Encoding Queue:  x264  x265

Latest Episodes

Popular Movies and TV Shows

  • My Adventures with Superman
  • Christmas Is Canceled
  • The Body Stealers
  • Satan's Children
  • Top Chef: The Dish with Kish
  • Costa!!
  • Mayor of Kingstown
  • Interview with the Vampire
  • Hotel Cocaine
  • Daaaaaali!
  • Octopussy
  • Look to the Light
  • Ladies in Black
  • Billy the Kid
  • Walker
  • Kung Fu Hustle
  • Licence to Kill
  • There's Something About Mary
  • WWE NXT
  • The Loud House
  • The Bold and the Beautiful
  • Vice News Presents: Mass Shooting America
  • Inside Out 2
  • My Sexual Abuse: The Sitcom
  • The Daily Show

Recent Comments

Archives