Sign Up   |   Sign In  
The PrimevalsWreckSaving Private RyanNinja TerminatorBartender: Glass of GodPoftiti pe la noiThe AcolyteDark MatterPresumed InnocentMysteries of the Terracotta WarriorsLost SoulzPet SemataryWWE NXTThe Big Door PrizeTryingHow Music Got FreeThe Beast in the JunglePeggy Sue Got MarriedWWE Smackdown!The Loud HouseAcapulcoWild Eyed and WickedFrom Russia with LoveDiamonds Are ForeverThe Daily Show

Announcements

05/23

2024

1

Comments

Trying S04E02 Ghosting 720p ATVP WEB-DL DDP5 1 H 264-NTb
[RR/NF/CU]
Size: 717MB mkv H264 (HIGH) / EAC3  HD  1356x678

Trying
File Information
[img]http://lookpic.com/cdn/i2/t/0523202415193006-1.jpg[/img]
[img]http://lookpic.com/cdn/i2/t/0523202415193006-2.jpg[/img]
[img]http://lookpic.com/cdn/i2/t/0523202415193006-3.jpg[/img]

General
Unique ID                                : 48319330016508530873287483345315033220 (0x2459F6E6A9F76C640815C6A78B9BF084)
Complete name                            : Trying S04E02 Ghosting 720p ATVP WEB-DL DDP5 1 H 264-NTb.mkv
Format                                   : Matroska
Format version                           : Version 4
File size                                : 717 MiB
Duration                                 : 27 min 47 s
Overall bit rate                         : 3 608 kb/s
Frame rate                               : 23.976 FPS
Writing application                      : mkvmerge v84.0 ('Sleeper') 64-bit
Writing library                          : libebml v1.4.5 + libmatroska v1.7.1

Video
ID                                       : 1
Format                                   : AVC
Format/Info                              : Advanced Video Codec
Format profile                           : High@L3.2
Format settings                          : CABAC / 5 Ref Frames
Format settings, CABAC                   : Yes
Format settings, Reference frames        : 5 frames
Codec ID                                 : V_MPEG4/ISO/AVC
Duration                                 : 27 min 47 s
Bit rate                                 : 2 831 kb/s
Width                                    : 1 356 pixels
Height                                   : 678 pixels
Display aspect ratio                     : 2.000
Frame rate mode                          : Constant
Frame rate                               : 23.976 (24000/1001) FPS
Color space                              : YUV
Chroma subsampling                       : 4:2:0
Bit depth                                : 8 bits
Scan type                                : Progressive
Bits/(Pixel*Frame)                       : 0.128
Stream size                              : 563 MiB (78%)
Default                                  : Yes
Forced                                   : No
Color range                              : Limited
Color primaries                          : BT.709
Transfer characteristics                 : BT.709
Matrix coefficients                      : BT.709

Audio
ID                                       : 2
Format                                   : E-AC-3 JOC
Format/Info                              : Enhanced AC-3 with Joint Object Coding
Commercial name                          : Dolby Digital Plus with Dolby Atmos
Codec ID                                 : A_EAC3
Duration                                 : 27 min 47 s
Bit rate mode                            : Constant
Bit rate                                 : 768 kb/s
Channel(s)                               : 6 channels
Channel layout                           : L R C LFE Ls Rs
Sampling rate                            : 48.0 kHz
Frame rate                               : 31.250 FPS (1536 SPF)
Compression mode                         : Lossy
Stream size                              : 153 MiB (21%)
Language                                 : English
Service kind                             : Complete Main
Default                                  : Yes
Forced                                   : No
Complexity index                         : 16
Number of dynamic objects                : 15
Bed channel count                        : 1 channel
Bed channel configuration                : LFE

Text #1
ID                                       : 3
Format                                   : UTF-8
Codec ID                                 : S_TEXT/UTF8
Codec ID/Info                            : UTF-8 Plain Text
Duration                                 : 26 min 28 s
Bit rate                                 : 76 b/s
Frame rate                               : 0.271 FPS
Count of elements                        : 430
Stream size                              : 14.9 KiB (0%)
Language                                 : English
Default                                  : No
Forced                                   : No

Text #2
ID                                       : 4
Format                                   : UTF-8
Codec ID                                 : S_TEXT/UTF8
Codec ID/Info                            : UTF-8 Plain Text
Duration                                 : 26 min 30 s
Bit rate                                 : 88 b/s
Frame rate                               : 0.294 FPS
Count of elements                        : 467
Stream size                              : 17.2 KiB (0%)
Title                                    : SDH
Language                                 : English
Default                                  : No
Forced                                   : No

Text #3
ID                                       : 5
Format                                   : UTF-8
Codec ID                                 : S_TEXT/UTF8
Codec ID/Info                            : UTF-8 Plain Text
Duration                                 : 27 min 33 s
Bit rate                                 : 110 b/s
Frame rate                               : 0.270 FPS
Count of elements                        : 446
Stream size                              : 22.3 KiB (0%)
Language                                 : Arabic
Default                                  : No
Forced                                   : No

Text #4
ID                                       : 6
Format                                   : UTF-8
Codec ID                                 : S_TEXT/UTF8
Codec ID/Info                            : UTF-8 Plain Text
Duration                                 : 27 min 33 s
Bit rate                                 : 97 b/s
Frame rate                               : 0.198 FPS
Count of elements                        : 327
Stream size                              : 19.8 KiB (0%)
Language                                 : Bulgarian
Default                                  : No
Forced                                   : No

Text #5
ID                                       : 7
Format                                   : UTF-8
Codec ID                                 : S_TEXT/UTF8
Codec ID/Info                            : UTF-8 Plain Text
Duration                                 : 27 min 33 s
Bit rate                                 : 65 b/s
Frame rate                               : 0.270 FPS
Count of elements                        : 447
Stream size                              : 13.3 KiB (0%)
Title                                    : Chinese (Simplified)
Language                                 : Mandarin (Hans)
Default                                  : No
Forced                                   : No

Text #6
ID                                       : 8
Format                                   : UTF-8
Codec ID                                 : S_TEXT/UTF8
Codec ID/Info                            : UTF-8 Plain Text
Duration                                 : 27 min 33 s
Bit rate                                 : 66 b/s
Frame rate                               : 0.271 FPS
Count of elements                        : 448
Stream size                              : 13.5 KiB (0%)
Title                                    : Chinese (Traditional)
Language                                 : Mandarin (Hant)
Default                                  : No
Forced                                   : No

Text #7
ID                                       : 9
Format                                   : UTF-8
Codec ID                                 : S_TEXT/UTF8
Codec ID/Info                            : UTF-8 Plain Text
Duration                                 : 27 min 33 s
Bit rate                                 : 63 b/s
Frame rate                               : 0.248 FPS
Count of elements                        : 410
Stream size                              : 12.8 KiB (0%)
Language                                 : Czech
Default                                  : No
Forced                                   : No

Text #8
ID                                       : 10
Format                                   : UTF-8
Codec ID                                 : S_TEXT/UTF8
Codec ID/Info                            : UTF-8 Plain Text
Duration                                 : 27 min 33 s
Bit rate                                 : 72 b/s
Frame rate                               : 0.245 FPS
Count of elements                        : 405
Stream size                              : 14.7 KiB (0%)
Language                                 : Danish
Default                                  : No
Forced                                   : No

Text #9
ID                                       : 11
Format                                   : UTF-8
Codec ID                                 : S_TEXT/UTF8
Codec ID/Info                            : UTF-8 Plain Text
Duration                                 : 26 min 52 s
Bit rate                                 : 71 b/s
Frame rate                               : 0.262 FPS
Count of elements                        : 423
Stream size                              : 14.2 KiB (0%)
Language                                 : German
Default                                  : No
Forced                                   : No

Text #10
ID                                       : 12
Format                                   : UTF-8
Codec ID                                 : S_TEXT/UTF8
Codec ID/Info                            : UTF-8 Plain Text
Duration                                 : 27 min 33 s
Bit rate                                 : 119 b/s
Frame rate                               : 0.252 FPS
Count of elements                        : 417
Stream size                              : 24.1 KiB (0%)
Language                                 : Greek
Default                                  : No
Forced                                   : No

Text #11
ID                                       : 13
Format                                   : UTF-8
Codec ID                                 : S_TEXT/UTF8
Codec ID/Info                            : UTF-8 Plain Text
Duration                                 : 27 min 33 s
Bit rate                                 : 70 b/s
Frame rate                               : 0.267 FPS
Count of elements                        : 441
Stream size                              : 14.3 KiB (0%)
Title                                    : Spanish (Latin America)
Language                                 : Spanish (Latin America)
Default                                  : No
Forced                                   : No

Text #12
ID                                       : 14
Format                                   : UTF-8
Codec ID                                 : S_TEXT/UTF8
Codec ID/Info                            : UTF-8 Plain Text
Duration                                 : 27 min 33 s
Bit rate                                 : 71 b/s
Frame rate                               : 0.257 FPS
Count of elements                        : 425
Stream size                              : 14.5 KiB (0%)
Title                                    : Spanish (Spain)
Language                                 : Spanish (ES)
Default                                  : No
Forced                                   : No

Text #13
ID                                       : 15
Format                                   : UTF-8
Codec ID                                 : S_TEXT/UTF8
Codec ID/Info                            : UTF-8 Plain Text
Duration                                 : 27 min 33 s
Bit rate                                 : 67 b/s
Frame rate                               : 0.246 FPS
Count of elements                        : 406
Stream size                              : 13.6 KiB (0%)
Language                                 : Estonian
Default                                  : No
Forced                                   : No

Text #14
ID                                       : 16
Format                                   : UTF-8
Codec ID                                 : S_TEXT/UTF8
Codec ID/Info                            : UTF-8 Plain Text
Duration                                 : 27 min 33 s
Bit rate                                 : 71 b/s
Frame rate                               : 0.262 FPS
Count of elements                        : 434
Stream size                              : 14.5 KiB (0%)
Language                                 : Finnish
Default                                  : No
Forced                                   : No

Text #15
ID                                       : 17
Format                                   : UTF-8
Codec ID                                 : S_TEXT/UTF8
Codec ID/Info                            : UTF-8 Plain Text
Duration                                 : 26 min 44 s
Bit rate                                 : 66 b/s
Frame rate                               : 0.278 FPS
Count of elements                        : 446
Stream size                              : 13.1 KiB (0%)
Title                                    : French (Canada)
Language                                 : French (CA)
Default                                  : No
Forced                                   : No

Text #16
ID                                       : 18
Format                                   : UTF-8
Codec ID                                 : S_TEXT/UTF8
Codec ID/Info                            : UTF-8 Plain Text
Duration                                 : 26 min 44 s
Bit rate                                 : 66 b/s
Frame rate                               : 0.277 FPS
Count of elements                        : 445
Stream size                              : 13.1 KiB (0%)
Title                                    : French (France)
Language                                 : French (FR)
Default                                  : No
Forced                                   : No

Text #17
ID                                       : 19
Format                                   : UTF-8
Codec ID                                 : S_TEXT/UTF8
Codec ID/Info                            : UTF-8 Plain Text
Duration                                 : 27 min 33 s
Bit rate                                 : 100 b/s
Frame rate                               : 0.270 FPS
Count of elements                        : 446
Stream size                              : 20.3 KiB (0%)
Language                                 : Hebrew
Default                                  : No
Forced                                   : No

Text #18
ID                                       : 20
Format                                   : UTF-8
Codec ID                                 : S_TEXT/UTF8
Codec ID/Info                            : UTF-8 Plain Text
Duration                                 : 27 min 33 s
Bit rate                                 : 201 b/s
Frame rate                               : 0.271 FPS
Count of elements                        : 448
Stream size                              : 40.7 KiB (0%)
Language                                 : Hindi
Default                                  : No
Forced                                   : No

Text #19
ID                                       : 21
Format                                   : UTF-8
Codec ID                                 : S_TEXT/UTF8
Codec ID/Info                            : UTF-8 Plain Text
Duration                                 : 27 min 33 s
Bit rate                                 : 75 b/s
Frame rate                               : 0.267 FPS
Count of elements                        : 441
Stream size                              : 15.3 KiB (0%)
Language                                 : Hungarian
Default                                  : No
Forced                                   : No

Text #20
ID                                       : 22
Format                                   : UTF-8
Codec ID                                 : S_TEXT/UTF8
Codec ID/Info                            : UTF-8 Plain Text
Duration                                 : 27 min 33 s
Bit rate                                 : 73 b/s
Frame rate                               : 0.267 FPS
Count of elements                        : 442
Stream size                              : 14.8 KiB (0%)
Language                                 : Indonesian
Default                                  : No
Forced                                   : No

Text #21
ID                                       : 23
Format                                   : UTF-8
Codec ID                                 : S_TEXT/UTF8
Codec ID/Info                            : UTF-8 Plain Text
Duration                                 : 27 min 28 s
Bit rate                                 : 70 b/s
Frame rate                               : 0.257 FPS
Count of elements                        : 424
Stream size                              : 14.2 KiB (0%)
Language                                 : Italian
Default                                  : No
Forced                                   : No

Text #22
ID                                       : 24
Format                                   : UTF-8
Codec ID                                 : S_TEXT/UTF8
Codec ID/Info                            : UTF-8 Plain Text
Duration                                 : 27 min 36 s
Bit rate                                 : 57 b/s
Frame rate                               : 0.270 FPS
Count of elements                        : 448
Stream size                              : 11.6 KiB (0%)
Language                                 : Japanese
Default                                  : No
Forced                                   : No

Text #23
ID                                       : 25
Format                                   : UTF-8
Codec ID                                 : S_TEXT/UTF8
Codec ID/Info                            : UTF-8 Plain Text
Duration                                 : 27 min 33 s
Bit rate                                 : 74 b/s
Frame rate                               : 0.270 FPS
Count of elements                        : 446
Stream size                              : 15.1 KiB (0%)
Language                                 : Korean
Default                                  : No
Forced                                   : No

Text #24
ID                                       : 26
Format                                   : UTF-8
Codec ID                                 : S_TEXT/UTF8
Codec ID/Info                            : UTF-8 Plain Text
Duration                                 : 27 min 33 s
Bit rate                                 : 69 b/s
Frame rate                               : 0.267 FPS
Count of elements                        : 441
Stream size                              : 14.1 KiB (0%)
Language                                 : Lithuanian
Default                                  : No
Forced                                   : No

Text #25
ID                                       : 27
Format                                   : UTF-8
Codec ID                                 : S_TEXT/UTF8
Codec ID/Info                            : UTF-8 Plain Text
Duration                                 : 27 min 33 s
Bit rate                                 : 73 b/s
Frame rate                               : 0.254 FPS
Count of elements                        : 420
Stream size                              : 14.8 KiB (0%)
Language                                 : Latvian
Default                                  : No
Forced                                   : No

Text #26
ID                                       : 28
Format                                   : UTF-8
Codec ID                                 : S_TEXT/UTF8
Codec ID/Info                            : UTF-8 Plain Text
Duration                                 : 27 min 33 s
Bit rate                                 : 74 b/s
Frame rate                               : 0.267 FPS
Count of elements                        : 441
Stream size                              : 15.0 KiB (0%)
Language                                 : Malay
Default                                  : No
Forced                                   : No

Text #27
ID                                       : 29
Format                                   : UTF-8
Codec ID                                 : S_TEXT/UTF8
Codec ID/Info                            : UTF-8 Plain Text
Duration                                 : 27 min 33 s
Bit rate                                 : 61 b/s
Frame rate                               : 0.223 FPS
Count of elements                        : 369
Stream size                              : 12.5 KiB (0%)
Language                                 : Dutch
Default                                  : No
Forced                                   : No

Text #28
ID                                       : 30
Format                                   : UTF-8
Codec ID                                 : S_TEXT/UTF8
Codec ID/Info                            : UTF-8 Plain Text
Duration                                 : 27 min 33 s
Bit rate                                 : 64 b/s
Frame rate                               : 0.230 FPS
Count of elements                        : 381
Stream size                              : 13.0 KiB (0%)
Language                                 : Norwegian
Default                                  : No
Forced                                   : No

Text #29
ID                                       : 31
Format                                   : UTF-8
Codec ID                                 : S_TEXT/UTF8
Codec ID/Info                            : UTF-8 Plain Text
Duration                                 : 27 min 33 s
Bit rate                                 : 62 b/s
Frame rate                               : 0.246 FPS
Count of elements                        : 407
Stream size                              : 12.7 KiB (0%)
Language                                 : Polish
Default                                  : No
Forced                                   : No

Text #30
ID                                       : 32
Format                                   : UTF-8
Codec ID                                 : S_TEXT/UTF8
Codec ID/Info                            : UTF-8 Plain Text
Duration                                 : 27 min 33 s
Bit rate                                 : 67 b/s
Frame rate                               : 0.259 FPS
Count of elements                        : 428
Stream size                              : 13.6 KiB (0%)
Title                                    : Portuguese
Language                                 : Portuguese
Default                                  : No
Forced                                   : No

Text #31
ID                                       : 33
Format                                   : UTF-8
Codec ID                                 : S_TEXT/UTF8
Codec ID/Info                            : UTF-8 Plain Text
Duration                                 : 27 min 33 s
Bit rate                                 : 64 b/s
Frame rate                               : 0.244 FPS
Count of elements                        : 404
Stream size                              : 13.0 KiB (0%)
Title                                    : Portuguese (Brazil)
Language                                 : Portuguese (BR)
Default                                  : No
Forced                                   : No

Text #32
ID                                       : 34
Format                                   : UTF-8
Codec ID                                 : S_TEXT/UTF8
Codec ID/Info                            : UTF-8 Plain Text
Duration                                 : 27 min 33 s
Bit rate                                 : 108 b/s
Frame rate                               : 0.259 FPS
Count of elements                        : 428
Stream size                              : 21.8 KiB (0%)
Language                                 : Russian
Default                                  : No
Forced                                   : No

Text #33
ID                                       : 35
Format                                   : UTF-8
Codec ID                                 : S_TEXT/UTF8
Codec ID/Info                            : UTF-8 Plain Text
Duration                                 : 27 min 33 s
Bit rate                                 : 66 b/s
Frame rate                               : 0.265 FPS
Count of elements                        : 439
Stream size                              : 13.4 KiB (0%)
Language                                 : Slovak
Default                                  : No
Forced                                   : No

Text #34
ID                                       : 36
Format                                   : UTF-8
Codec ID                                 : S_TEXT/UTF8
Codec ID/Info                            : UTF-8 Plain Text
Duration                                 : 27 min 33 s
Bit rate                                 : 60 b/s
Frame rate                               : 0.250 FPS
Count of elements                        : 413
Stream size                              : 12.2 KiB (0%)
Language                                 : Slovenian
Default                                  : No
Forced                                   : No

Text #35
ID                                       : 37
Format                                   : UTF-8
Codec ID                                 : S_TEXT/UTF8
Codec ID/Info                            : UTF-8 Plain Text
Duration                                 : 27 min 33 s
Bit rate                                 : 70 b/s
Frame rate                               : 0.265 FPS
Count of elements                        : 439
Stream size                              : 14.3 KiB (0%)
Language                                 : Swedish
Default                                  : No
Forced                                   : No

Text #36
ID                                       : 38
Format                                   : UTF-8
Codec ID                                 : S_TEXT/UTF8
Codec ID/Info                            : UTF-8 Plain Text
Duration                                 : 27 min 33 s
Bit rate                                 : 236 b/s
Frame rate                               : 0.270 FPS
Count of elements                        : 447
Stream size                              : 47.7 KiB (0%)
Language                                 : Tamil
Default                                  : No
Forced                                   : No

Text #37
ID                                       : 39
Format                                   : UTF-8
Codec ID                                 : S_TEXT/UTF8
Codec ID/Info                            : UTF-8 Plain Text
Duration                                 : 27 min 33 s
Bit rate                                 : 220 b/s
Frame rate                               : 0.270 FPS
Count of elements                        : 447
Stream size                              : 44.5 KiB (0%)
Language                                 : Telugu
Default                                  : No
Forced                                   : No

Text #38
ID                                       : 40
Format                                   : UTF-8
Codec ID                                 : S_TEXT/UTF8
Codec ID/Info                            : UTF-8 Plain Text
Duration                                 : 27 min 33 s
Bit rate                                 : 175 b/s
Frame rate                               : 0.270 FPS
Count of elements                        : 447
Stream size                              : 35.4 KiB (0%)
Language                                 : Thai
Default                                  : No
Forced                                   : No

Text #39
ID                                       : 41
Format                                   : UTF-8
Codec ID                                 : S_TEXT/UTF8
Codec ID/Info                            : UTF-8 Plain Text
Duration                                 : 27 min 33 s
Bit rate                                 : 69 b/s
Frame rate                               : 0.252 FPS
Count of elements                        : 417
Stream size                              : 13.9 KiB (0%)
Language                                 : Turkish
Default                                  : No
Forced                                   : No

Text #40
ID                                       : 42
Format                                   : UTF-8
Codec ID                                 : S_TEXT/UTF8
Codec ID/Info                            : UTF-8 Plain Text
Duration                                 : 27 min 33 s
Bit rate                                 : 110 b/s
Frame rate                               : 0.270 FPS
Count of elements                        : 446
Stream size                              : 22.4 KiB (0%)
Language                                 : Ukrainian
Default                                  : No
Forced                                   : No

Text #41
ID                                       : 43
Format                                   : UTF-8
Codec ID                                 : S_TEXT/UTF8
Codec ID/Info                            : UTF-8 Plain Text
Duration                                 : 27 min 33 s
Bit rate                                 : 92 b/s
Frame rate                               : 0.268 FPS
Count of elements                        : 443
Stream size                              : 18.6 KiB (0%)
Language                                 : Vietnamese
Default                                  : No
Forced                                   : No

Text #42
ID                                       : 44
Format                                   : UTF-8
Codec ID                                 : S_TEXT/UTF8
Codec ID/Info                            : UTF-8 Plain Text
Duration                                 : 27 min 33 s
Bit rate                                 : 62 b/s
Frame rate                               : 0.270 FPS
Count of elements                        : 447
Stream size                              : 12.7 KiB (0%)
Title                                    : Cantonese (Traditional)
Language                                 : Cantonese (Hant)
Default                                  : No
Forced                                   : No



Download
File Container: MKV
Video/Audio Codec: H264 (HIGH) EAC3
Video Resolution: 1356x678

1 Response to "[RR/NF/CU] Trying S04E02 Ghosting 720p ATVP WEB-DL DDP5 1 H 264-NTb (717MB)"
05/23/24
17:33:26
ReadyPlayerOne

Thank You

Please Login to post a comment.
If you don't have any account, please Register.
  • Subscribe my Feeds
  • Facebook
Encoding Queue:  x264  x265

Latest Episodes

Popular Movies and TV Shows

  • The Primevals
  • Wreck
  • Saving Private Ryan
  • Ninja Terminator
  • Bartender: Glass of God
  • Poftiti pe la noi
  • The Acolyte
  • Dark Matter
  • Presumed Innocent
  • Mysteries of the Terracotta Warriors
  • Lost Soulz
  • Pet Sematary
  • WWE NXT
  • The Big Door Prize
  • Trying
  • How Music Got Free
  • The Beast in the Jungle
  • Peggy Sue Got Married
  • WWE Smackdown!
  • The Loud House
  • Acapulco
  • Wild Eyed and Wicked
  • From Russia with Love
  • Diamonds Are Forever
  • The Daily Show

Recent Comments

  • KissclTum: [url=https://kisstom.ru/prices]имплант с коронкой цена кисс [/url] Tegs: и...
  • Diggety247:

    BrokenHanded, Try using a DL manager.

  • BrokenHanded: clicknupload does not seem to work for past few days. keep getting an error saying the site is sendi...
  • Bud: Helps if you actually add these to the "Late Night with Seth Meyers" page too...
  • rambaldi70:

    Hy! Right now, my download speed : 1 Mb/s
    this is ok?
    Tx answer

  • Cinque_Persson: At 183 MB this had to be something completely different. In fact it's just the main actors commentin...
  • meyat74:

    my bad, should be full season

  • Oscar2:

    Halo "is" a good show

  • MeH:

    "one of the most impressive scenes"

  • rappet:

    Unfortunately, episode 2 not playing and episode 3 half missing (only 37 minutes long).

  • Anovani:

    Nice 1

  • shark:

    Will there be a sequel?

  • sjors:

    This release in in Russian with Russian subs. No English.

  • RapidRabbit98: I'll ask again Forged in Fire Series 11 episode 1 - anyone have it?

Archives