Sign Up   |   Sign In  
Young SheldonTrackerTMZ Presents: The Downfall of DiddyBob's BurgersImmaculateColombianaThe Green VeilBodkinDevil in the FleshThe Great NorthQueen of the GypsiesTales of Ordinary MadnessThe SimpsonsThe EqualizerCSI: VegasGolden KamuyBaby DriverChallengersThe SympathizerKrapopolisThe Bold and the BeautifulTriple FrontierA Walk Among the TombstonesDawn of the Planet of the ApesBeacon 23

Announcements

04/17

2024

1

Comments

Under the Bridge S01E01 Looking Glass 720p DSNP WEB-DL DDP5 1 H 264-FLUX
[RR/NF/CU]
Size: 1001MB mkv H264 (HIGH) / EAC3  HD  1280x720

Under the Bridge
File Information
[img]http://lookpic.com/cdn/i2/t/0417202411001839-1.jpg[/img]
[img]http://lookpic.com/cdn/i2/t/0417202411001839-2.jpg[/img]
[img]http://lookpic.com/cdn/i2/t/0417202411001839-3.jpg[/img]

General
Unique ID                                : 266233882615049184608995225176003531661 (0xC84AC7DA3E4F4000A05AB08388B7538D)
Complete name                            : Under the Bridge S01E01 Looking Glass 720p DSNP WEB-DL DDP5 1 H 264-FLUX.mkv
Format                                   : Matroska
Format version                           : Version 4
File size                                : 1 002 MiB
Duration                                 : 47 min 5 s
Overall bit rate mode                    : Variable
Overall bit rate                         : 2 974 kb/s
Frame rate                               : 23.976 FPS
Writing application                      : mkvmerge v83.0 ('Circle Of Friends') 64-bit
Writing library                          : libebml v1.4.5 + libmatroska v1.7.1

Video
ID                                       : 1
Format                                   : AVC
Format/Info                              : Advanced Video Codec
Format profile                           : High@L3.1
Format settings                          : CABAC / 4 Ref Frames
Format settings, CABAC                   : Yes
Format settings, Reference frames        : 4 frames
Codec ID                                 : V_MPEG4/ISO/AVC
Duration                                 : 47 min 5 s
Bit rate mode                            : Variable
Bit rate                                 : 2 715 kb/s
Maximum bit rate                         : 6 375 kb/s
Width                                    : 1 280 pixels
Height                                   : 720 pixels
Display aspect ratio                     : 16:9
Frame rate mode                          : Constant
Frame rate                               : 23.976 (24000/1001) FPS
Color space                              : YUV
Chroma subsampling                       : 4:2:0
Bit depth                                : 8 bits
Scan type                                : Progressive
Bits/(Pixel*Frame)                       : 0.123
Time code of first frame                 : 00:00:00:0000000000
Stream size                              : 915 MiB (91%)
Language                                 : English
Default                                  : Yes
Forced                                   : No
Color range                              : Limited
Color primaries                          : BT.709
Transfer characteristics                 : BT.709
Matrix coefficients                      : BT.709

Audio
ID                                       : 2
Format                                   : E-AC-3
Format/Info                              : Enhanced AC-3
Commercial name                          : Dolby Digital Plus
Codec ID                                 : A_EAC3
Duration                                 : 47 min 5 s
Bit rate mode                            : Constant
Bit rate                                 : 256 kb/s
Channel(s)                               : 6 channels
Channel layout                           : L R C LFE Ls Rs
Sampling rate                            : 48.0 kHz
Frame rate                               : 31.250 FPS (1536 SPF)
Compression mode                         : Lossy
Stream size                              : 86.2 MiB (9%)
Language                                 : English
Service kind                             : Complete Main
Default                                  : Yes
Forced                                   : No

Text #1
ID                                       : 3
Format                                   : UTF-8
Codec ID                                 : S_TEXT/UTF8
Codec ID/Info                            : UTF-8 Plain Text
Duration                                 : 46 min 49 s
Bit rate                                 : 64 b/s
Frame rate                               : 0.228 FPS
Count of elements                        : 641
Stream size                              : 22.1 KiB (0%)
Language                                 : English
Default                                  : No
Forced                                   : No

Text #2
ID                                       : 4
Format                                   : UTF-8
Codec ID                                 : S_TEXT/UTF8
Codec ID/Info                            : UTF-8 Plain Text
Duration                                 : 46 min 49 s
Bit rate                                 : 87 b/s
Frame rate                               : 0.305 FPS
Count of elements                        : 858
Stream size                              : 30.0 KiB (0%)
Title                                    : SDH
Language                                 : English
Default                                  : No
Forced                                   : No

Text #3
ID                                       : 5
Format                                   : UTF-8
Codec ID                                 : S_TEXT/UTF8
Codec ID/Info                            : UTF-8 Plain Text
Duration                                 : 46 min 57 s
Bit rate                                 : 60 b/s
Frame rate                               : 0.211 FPS
Count of elements                        : 594
Stream size                              : 20.6 KiB (0%)
Title                                    : Latin American
Language                                 : Spanish (Latin America)
Default                                  : No
Forced                                   : No

Menu
00:46:06.305                             : en:Credits



Download
File Container: MKV
Video/Audio Codec: H264 (HIGH) EAC3
Video Resolution: 1280x720

1 Response to "[RR/NF/CU] Under the Bridge S01E01 Looking Glass 720p DSNP WEB-DL DDP5 1 H 264-FLUX (1001MB)"
04/18/24
07:52:48
ReadyPlayerOne

Thank You

Please Login to post a comment.
If you don't have any account, please Register.
  • Subscribe my Feeds
  • Facebook
Encoding Queue:  x264  x265

Latest Episodes

Popular Movies and TV Shows

  • Young Sheldon
  • Tracker
  • TMZ Presents: The Downfall of Diddy
  • Bob's Burgers
  • Immaculate
  • Colombiana
  • The Green Veil
  • Bodkin
  • Devil in the Flesh
  • The Great North
  • Queen of the Gypsies
  • Tales of Ordinary Madness
  • The Simpsons
  • The Equalizer
  • CSI: Vegas
  • Golden Kamuy
  • Baby Driver
  • Challengers
  • The Sympathizer
  • Krapopolis
  • The Bold and the Beautiful
  • Triple Frontier
  • A Walk Among the Tombstones
  • Dawn of the Planet of the Apes
  • Beacon 23

Recent Comments

  • Bud: Is the search engine down for everyone, or just me? It just says 'You're forbidden!' whenever I lo...
  • 23d1:

    not episode 4 it is episode 3

  • 23d1:

    not episode 4 it is episode 3

  • 23d1:

    not episode 4 it is episode 3

  • 23d1:

    not episode 4 it is episode 3

  • aaroz88:

    Trimas!!

  • mptoo: I don't often ask this, infact this would be the first time, but I don't suppose there is any chance...
  • Cinque_Persson:

    btw:
    quote /quote
    is broken

  • gabrielsyme:

    Sorry but where is the clicknupload link?

  • mike1204:

    Is this episode doomed??? The RMX avi version is only 12 minutes long!!!

  • waanaabe:

    Could PUSHING DAISES kindly be upoaded to CU? THANKS!

Archives