Sign Up   |   Sign In  
Mysterious DisappearancesWreckKonosuba: God's Blessing on This Wonderful World!Europa ReportLost SoulzMemories of My ChildhoodThe AcolyteDark MatterPresumed InnocentThe PrimevalsMysteries of the Terracotta WarriorsPet SemataryWWE NXTThe Big Door PrizeTryingHow Music Got FreeThe Beast in the JunglePeggy Sue Got MarriedWWE Smackdown!The Loud HouseAcapulcoWild Eyed and WickedUnsung HeroFrom Russia with LoveThe Daily Show

Announcements

05/29

2024

1

Comments

Under the Bridge S01E08 Mercy Alone 720p DSNP WEB-DL DDP5 1 H 264-FLUX
[RR/NF/CU]
Size: 1.1GB mkv H264 (HIGH) / EAC3  HD  1280x720

Under the Bridge
File Information
[img]http://lookpic.com/cdn/i2/t/0529202419402044-1.jpg[/img]
[img]http://lookpic.com/cdn/i2/t/0529202419402044-2.jpg[/img]
[img]http://lookpic.com/cdn/i2/t/0529202419402044-3.jpg[/img]

General
Unique ID                                : 137310898688629096702545418087921173659 (0x674D1DFD612AF0D0E8A4F6A18DD5449B)
Complete name                            : Under the Bridge S01E08 Mercy Alone 720p DSNP WEB-DL DDP5 1 H 264-FLUX.mkv
Format                                   : Matroska
Format version                           : Version 4
File size                                : 1.08 GiB
Duration                                 : 1 h 0 min
Overall bit rate mode                    : Variable
Overall bit rate                         : 2 529 kb/s
Frame rate                               : 23.976 FPS
Writing application                      : mkvmerge v83.0 ('Circle Of Friends') 64-bit
Writing library                          : libebml v1.4.5 + libmatroska v1.7.1

Video
ID                                       : 1
Format                                   : AVC
Format/Info                              : Advanced Video Codec
Format profile                           : High@L3.1
Format settings                          : CABAC / 4 Ref Frames
Format settings, CABAC                   : Yes
Format settings, Reference frames        : 4 frames
Codec ID                                 : V_MPEG4/ISO/AVC
Duration                                 : 1 h 0 min
Bit rate mode                            : Variable
Bit rate                                 : 2 271 kb/s
Maximum bit rate                         : 6 375 kb/s
Width                                    : 1 280 pixels
Height                                   : 720 pixels
Display aspect ratio                     : 16:9
Frame rate mode                          : Constant
Frame rate                               : 23.976 (24000/1001) FPS
Color space                              : YUV
Chroma subsampling                       : 4:2:0
Bit depth                                : 8 bits
Scan type                                : Progressive
Bits/(Pixel*Frame)                       : 0.103
Time code of first frame                 : 00:00:00:0000000000
Stream size                              : 989 MiB (90%)
Language                                 : English
Default                                  : Yes
Forced                                   : No
Color range                              : Limited
Color primaries                          : BT.709
Transfer characteristics                 : BT.709
Matrix coefficients                      : BT.709

Audio
ID                                       : 2
Format                                   : E-AC-3
Format/Info                              : Enhanced AC-3
Commercial name                          : Dolby Digital Plus
Codec ID                                 : A_EAC3
Duration                                 : 1 h 0 min
Bit rate mode                            : Constant
Bit rate                                 : 256 kb/s
Channel(s)                               : 6 channels
Channel layout                           : L R C LFE Ls Rs
Sampling rate                            : 48.0 kHz
Frame rate                               : 31.250 FPS (1536 SPF)
Compression mode                         : Lossy
Stream size                              : 111 MiB (10%)
Language                                 : English
Service kind                             : Complete Main
Default                                  : Yes
Forced                                   : No

Text #1
ID                                       : 3
Format                                   : UTF-8
Codec ID                                 : S_TEXT/UTF8
Codec ID/Info                            : UTF-8 Plain Text
Duration                                 : 1 h 0 min
Bit rate                                 : 52 b/s
Frame rate                               : 0.193 FPS
Count of elements                        : 703
Stream size                              : 23.1 KiB (0%)
Language                                 : English
Default                                  : No
Forced                                   : No

Text #2
ID                                       : 4
Format                                   : UTF-8
Codec ID                                 : S_TEXT/UTF8
Codec ID/Info                            : UTF-8 Plain Text
Duration                                 : 1 h 0 min
Bit rate                                 : 63 b/s
Frame rate                               : 0.241 FPS
Count of elements                        : 875
Stream size                              : 28.3 KiB (0%)
Title                                    : SDH
Language                                 : English
Default                                  : No
Forced                                   : No

Text #3
ID                                       : 5
Format                                   : UTF-8
Codec ID                                 : S_TEXT/UTF8
Codec ID/Info                            : UTF-8 Plain Text
Duration                                 : 1 h 0 min
Bit rate                                 : 53 b/s
Frame rate                               : 0.190 FPS
Count of elements                        : 691
Stream size                              : 23.9 KiB (0%)
Title                                    : Latin American
Language                                 : Spanish (Latin America)
Default                                  : No
Forced                                   : No

Menu
00:59:52.088                             : en:Credits



Download
File Container: MKV
Video/Audio Codec: H264 (HIGH) EAC3
Video Resolution: 1280x720

1 Response to "[RR/NF/CU] Under the Bridge S01E08 Mercy Alone 720p DSNP WEB-DL DDP5 1 H 264-FLUX (1.1GB)"
05/29/24
20:06:01
ReadyPlayerOne

Thank You

Please Login to post a comment.
If you don't have any account, please Register.
  • Subscribe my Feeds
  • Facebook
Encoding Queue:  x264  x265

Latest Episodes

Popular Movies and TV Shows

  • Mysterious Disappearances
  • Wreck
  • Konosuba: God's Blessing on This Wonderful World!
  • Europa Report
  • Lost Soulz
  • Memories of My Childhood
  • The Acolyte
  • Dark Matter
  • Presumed Innocent
  • The Primevals
  • Mysteries of the Terracotta Warriors
  • Pet Sematary
  • WWE NXT
  • The Big Door Prize
  • Trying
  • How Music Got Free
  • The Beast in the Jungle
  • Peggy Sue Got Married
  • WWE Smackdown!
  • The Loud House
  • Acapulco
  • Wild Eyed and Wicked
  • Unsung Hero
  • From Russia with Love
  • The Daily Show

Recent Comments

  • KissclTum: [url=https://kisstom.ru/prices]имплант с коронкой цена кисс [/url] Tegs: и...
  • Diggety247:

    BrokenHanded, Try using a DL manager.

  • BrokenHanded: clicknupload does not seem to work for past few days. keep getting an error saying the site is sendi...
  • Bud: Helps if you actually add these to the "Late Night with Seth Meyers" page too...
  • rambaldi70:

    Hy! Right now, my download speed : 1 Mb/s
    this is ok?
    Tx answer

  • Cinque_Persson: At 183 MB this had to be something completely different. In fact it's just the main actors commentin...
  • meyat74:

    my bad, should be full season

  • Oscar2:

    Halo "is" a good show

  • MeH:

    "one of the most impressive scenes"

  • rappet:

    Unfortunately, episode 2 not playing and episode 3 half missing (only 37 minutes long).

  • Anovani:

    Nice 1

  • shark:

    Will there be a sequel?

  • sjors:

    This release in in Russian with Russian subs. No English.

  • RapidRabbit98: I'll ask again Forged in Fire Series 11 episode 1 - anyone have it?

Archives