Sign Up   |   Sign In  

Announcements

Want to support us?
Buy a RapidRAR account from our resellers:
Buy or renew a NitroFlare account via THIS LINK

04/18

2017

No

Comments

We Bare Bears S03E06 WEB-DL x264-RARBG
[RR/NF/UL/OL/OLw/UR/CU]
Size: 47MB mp4 H264 (HIGH) (AVC1) / AAC (LC) (MP4A) 720x400

We Bare Bears
Click on the image to see full size
[RR/NF/UL/OL/OLw/UR/CU] We Bare Bears S03E06 WEB-DL x264-RARBG (47MB) - Snapshot 1[RR/NF/UL/OL/OLw/UR/CU] We Bare Bears S03E06 WEB-DL x264-RARBG (47MB) - Snapshot 2
File Information
[URL]http://www.imdb.com/title/tt4839610/[/URL]
[screenshots]
[URL=http://imagecurl.com/viewer.php?file=48335565129773186835.png][IMG]http://imagecurl.com/images/48335565129773186835_thumb.png[/IMG][/URL]
[URL=http://imagecurl.com/viewer.php?file=45625874968488992630.png][IMG]http://imagecurl.com/images/45625874968488992630_thumb.png[/IMG][/URL]

[/screenshots]


[mediainfo]
Video
ID                                       : 1
Format                                   : AVC
Format/Info                              : Advanced Video Codec
Format profile                           : [email protected]
Format settings, CABAC                   : Yes
Format settings, ReFrames                : 5 frames
Codec ID                                 : avc1
Codec ID/Info                            : Advanced Video Coding
Duration                                 : 11mn 23s
Bit rate                                 : 453 Kbps
Width                                    : 720 pixels
Height                                   : 400 pixels
Display aspect ratio                     : 16:9
Frame rate mode                          : Constant
Frame rate                               : 23.976 (24000/1001) fps
Color space                              : YUV
Chroma subsampling                       : 4:2:0
Bit depth                                : 8 bits
Scan type                                : Progressive
Bits/(Pixel*Frame)                       : 0.066
Stream size                              : 36.9 MiB (77%)
Title                                    : RARBG.COM - We.Bare.Bears.S03E06.WEB-DL.x264-RARBG
Writing library                          : x264 core 148 r2597M e86f3a1
 Encoding settings                        : cabac=1 / ref=5 / deblock=1:-1:-1 / analyse=0x3:0x113 / me=umh / subme=9 / psy=1 / psy_rd=1.00:0.15 / mixed_ref=1 / me_range=16 / chroma_me=1 / trellis=2 / 8x8dct=1 / cqm=0 / deadz / fast pskip=1 / chroma_qp_offset=-3 / threads=12 / lookahead_threads=1 / sliced_threads=0 / nr=0 / decimate=1 / interlaced=0 / bluray_compat=0 / c / bframes=3 / b_pyramid=2 / b_adapt=2 / b_bias=0 / direct=3 / weightb=1 / open_gop=0 / weightp=2 / keyint=250 / keyint_min=23 / scenecut=40 / intra_refresh=0 / rc_lookahead=50 / rc=crf / mbtree=1 / crf=19.0 / qcomp=0.60 / qpmin=0 / qpmax=69 / qpstep=4 / ip_ratio=1.40 / aq=1:1.00
Language                                 : English
Encoded date                             : UTC 2017-04-18 07:05:17
Tagged date                              : UTC 2017-04-18 07:05:17

Audio
ID                                       : 2
Format                                   : AAC
Format/Info                              : Advanced Audio Codec
Format profile                           : LC
Codec ID                                 : 40
Duration                                 : 11mn 23s
Bit rate mode                            : Constant
Bit rate                                 : 128 Kbps
Channel(s)                               : 2 channels
Channel positions                        : Front: L R
Sampling rate                            : 48.0 KHz
Frame rate                               : 46.875 fps (1024 spf)
Compression mode                         : Lossy
Stream size                              : 10.4 MiB (22%)
Title                                    : RARBG.COM - We.Bare.Bears.S03E06.WEB-DL.x264-RARBG
Language                                 : English
Default                                  : Yes
Alternate group                          : 1
Encoded date                             : UTC 2017-04-18 07:05:17
Tagged date                              : UTC 2017-04-18 07:05:17



[/mediainfo]
Download
File Container: MP4
Video/Audio Codec: H264 (HIGH) (AVC1) AAC (LC) (MP4A)
Video Resolution: 720x400
 
 
 
 
 
 
Watch Online [MP4]

Show us some love

Leave a Comment

  • (never displayed)
  •  
        Members don't see captchas. Sign Up / Sign In
  • Notify me via email when someone responds.
  • Subscribe my Feeds
  • Facebook

Latest Episodes

Popular Movies and TV Shows

  • Arrow
  • Fargo
  • The 100
  • Logan
  • John Wick: Chapter 2
  • Dirty Dancing
  • The Handmaid's Tale
  • Archer
  • White Gold
  • The Assignment
  • Aftermath
  • Russian Lolita
  • Empire
  • Shots Fired
  • The Flash
  • Bonded by Blood 2
  • The Boss Baby
  • Eat Local
  • Prison Break: Sequel
  • The Americans
  • iZombie
  • The Last Face
  • Beauty and the Beast
  • Night of Something Strange
  • Better Call Saul

Recent Comments

  • Setius:

    Uploaded PLEASE

  • Setius:

    Ditto uploadedking
    PLEASE

  • Atoz:

    Hey, folks.
    Anyone know the reason for this repack?
    Thanks!

  • Atoz:

    Hey, folks.
    Anyone know the reason for this repack?
    Thanks!

  • Setius:

    uploaded please

  • enkno:

    The clicknupload link is undefined.

  • M1st3rN0b0d7:

    Please release x265,

    Thanks !

  • M1st3rN0b0d7:

    Please release x265,

    Thanks !

  • /.:

    Is 1080p coming?

  • alfa:

    thanks