Sign Up   |   Sign In  

Announcements

Want to support us?
Buy a RapidRAR account from our resellers:
Buy or renew a NitroFlare account via THIS LINK

04/18

2017

1

Comments

We Bare Bears S03E08 WEB-DL x264-RARBG
[RR/NF/UL/OL/OLw/UR/CU]
Size: 58MB mp4 H264 (HIGH) (AVC1) / AAC (LC) (MP4A) 720x400

We Bare Bears
Click on the image to see full size
[RR/NF/UL/OL/OLw/UR/CU] We Bare Bears S03E08 WEB-DL x264-RARBG (58MB) - Snapshot 1[RR/NF/UL/OL/OLw/UR/CU] We Bare Bears S03E08 WEB-DL x264-RARBG (58MB) - Snapshot 2
File Information
[URL]http://www.imdb.com/title/tt4839610/[/URL]
[screenshots]
[URL=http://imagecurl.com/viewer.php?file=39395801440792196925.png][IMG]http://imagecurl.com/images/39395801440792196925_thumb.png[/IMG][/URL]
[URL=http://imagecurl.com/viewer.php?file=16900913328227701048.png][IMG]http://imagecurl.com/images/16900913328227701048_thumb.png[/IMG][/URL]

[/screenshots]


[mediainfo]
Video
ID                                       : 1
Format                                   : AVC
Format/Info                              : Advanced Video Codec
Format profile                           : [email protected]
Format settings, CABAC                   : Yes
Format settings, ReFrames                : 5 frames
Codec ID                                 : avc1
Codec ID/Info                            : Advanced Video Coding
Duration                                 : 11mn 22s
Bit rate                                 : 587 Kbps
Width                                    : 720 pixels
Height                                   : 400 pixels
Display aspect ratio                     : 16:9
Frame rate mode                          : Constant
Frame rate                               : 23.976 (24000/1001) fps
Color space                              : YUV
Chroma subsampling                       : 4:2:0
Bit depth                                : 8 bits
Scan type                                : Progressive
Bits/(Pixel*Frame)                       : 0.085
Stream size                              : 47.7 MiB (81%)
Title                                    : RARBG.COM - We.Bare.Bears.S03E08.WEB-DL.x264-RARBG
Writing library                          : x264 core 148 r2597M e86f3a1
 Encoding settings                        : cabac=1 / ref=5 / deblock=1:-1:-1 / analyse=0x3:0x113 / me=umh / subme=9 / psy=1 / psy_rd=1.00:0.15 / mixed_ref=1 / me_range=16 / chroma_me=1 / trellis=2 / 8x8dct=1 / cqm=0 / deadz / fast pskip=1 / chroma_qp_offset=-3 / threads=12 / lookahead_threads=1 / sliced_threads=0 / nr=0 / decimate=1 / interlaced=0 / bluray_compat=0 / c / bframes=3 / b_pyramid=2 / b_adapt=2 / b_bias=0 / direct=3 / weightb=1 / open_gop=0 / weightp=2 / keyint=250 / keyint_min=23 / scenecut=40 / intra_refresh=0 / rc_lookahead=50 / rc=crf / mbtree=1 / crf=19.0 / qcomp=0.60 / qpmin=0 / qpmax=69 / qpstep=4 / ip_ratio=1.40 / aq=1:1.00
Language                                 : English
Encoded date                             : UTC 2017-04-18 07:20:26
Tagged date                              : UTC 2017-04-18 07:20:26

Audio
ID                                       : 2
Format                                   : AAC
Format/Info                              : Advanced Audio Codec
Format profile                           : LC
Codec ID                                 : 40
Duration                                 : 11mn 22s
Bit rate mode                            : Constant
Bit rate                                 : 128 Kbps
Channel(s)                               : 2 channels
Channel positions                        : Front: L R
Sampling rate                            : 48.0 KHz
Frame rate                               : 46.875 fps (1024 spf)
Compression mode                         : Lossy
Stream size                              : 10.4 MiB (18%)
Title                                    : RARBG.COM - We.Bare.Bears.S03E08.WEB-DL.x264-RARBG
Language                                 : English
Default                                  : Yes
Alternate group                          : 1
Encoded date                             : UTC 2017-04-18 07:20:26
Tagged date                              : UTC 2017-04-18 07:20:26



[/mediainfo]
Download
File Container: MP4
Video/Audio Codec: H264 (HIGH) (AVC1) AAC (LC) (MP4A)
Video Resolution: 720x400
 
 
 
 
 
 
Watch Online [MP4]

Show us some love

1 Response to "[RR/NF/UL/OL/OLw/UR/CU] We Bare Bears S03E08 WEB-DL x264-RARBG (58MB)"
05/19/17
11:19:37
Admin

RapidRAR re-uploaded with new RAR file(s) (users who couldn't download some parts need to download all parts again).

Leave a Comment

  • (never displayed)
  •  
        Members don't see captchas. Sign Up / Sign In
  • Notify me via email when someone responds.
  • Subscribe my Feeds
  • Facebook

Latest Episodes

Popular Movies and TV Shows

  • Shot Caller
  • Shooter
  • Storage Wars
  • King Arthur: Legend of the Sword
  • Game of Thrones
  • Mary Shelley's Frankenstein
  • Awaken the Shadowman
  • Animal Kingdom
  • Somewhere Between
  • Preacher
  • Hunter's Prayer
  • Snatched
  • Law of Perdition
  • In the Dark
  • Wrecked
  • The Dinner
  • Batman: Mask of the Phantasm
  • The Sublet
  • Diary of a Wimpy Kid: The Long Haul
  • Midnight, Texas
  • Wakefield
  • Shadowhunters
  • The Fosters
  • The Ottoman Lieutenant
  • The Strain

Recent Comments

  • David-A-H:

    Thank you

  • b007:

    Thanks for another great upload.

  • Tonyl: @ spidapig As for stealing lets see, movie companies steals stories from books, comics.Thats just no...
  • LorD:

    Nuked?!

  • @openingcrew:

    I know what you mean i never understood people like that ether lol

  • It's A Bot Thing Baby: @ReverendX, RMTeam us not a group really it's just a tag the actual encode is done trough a automate...
  • openingcrew: Wow! What a hypocrite! Tells other off for it and then takes over the screen with his name Team Real...
  • spidapig: @Death too Hevc I like your reasoning not far from mine, i did say "legit" The "scene...
  • ReverendX: @ tchamast, Byala & DnnyThey are tagging it INTERNAL because the source they re-encoded from is:...
  • Team Reality Check: That's they thing i don't care what i say only you do and really I don't care what you only you do ....