Sign Up   |   Sign In  

Announcements

Want to support us?
Buy a RapidRAR account from our resellers:
Buy or renew a NitroFlare account via THIS LINK

06/17

2017

1

Comments

Wentworth S05E08 PDTV x264-NOGRP
[RR/NF/OL/UR/CU]
Size: 379MB mp4 H264 (HIGH) (AVC1) / AAC (LC) (MP4A) 720x400

Wentworth
Click on the image to see full size
[RR/NF/OL/UR/CU] Wentworth S05E08 PDTV x264-NOGRP (379MB) - Snapshot 1[RR/NF/OL/UR/CU] Wentworth S05E08 PDTV x264-NOGRP (379MB) - Snapshot 2
File Information
[URL=http://imagecurl.com/viewer.php?file=54791069590771791558.png][IMG]http://imagecurl.com/images/54791069590771791558_thumb.png[/IMG][/URL]
[URL=http://imagecurl.com/viewer.php?file=74698596584904148640.png][IMG]http://imagecurl.com/images/74698596584904148640_thumb.png[/IMG][/URL]
[URL=http://imagecurl.com/viewer.php?file=19830474802563594716.png][IMG]http://imagecurl.com/images/19830474802563594716_thumb.png[/IMG][/URL]
[URL=http://imagecurl.com/viewer.php?file=04727984528712942602.png][IMG]http://imagecurl.com/images/04727984528712942602_thumb.png[/IMG][/URL]
[URL=http://imagecurl.com/viewer.php?file=86444465184094912310.png][IMG]http://imagecurl.com/images/86444465184094912310_thumb.png[/IMG][/URL]
[URL=http://imagecurl.com/viewer.php?file=40424407916424195756.png][IMG]http://imagecurl.com/images/40424407916424195756_thumb.png[/IMG][/URL]



[mediainfo]
Video
ID                                       : 1
Format                                   : AVC
Format/Info                              : Advanced Video Codec
Format profile                           : [email protected]
Format settings, CABAC                   : Yes
Format settings, ReFrames                : 5 frames
Codec ID                                 : avc1
Codec ID/Info                            : Advanced Video Coding
Duration                                 : 44 min 21 s
Bit rate                                 : 1 000 kb/s
Width                                    : 720 pixels
Height                                   : 400 pixels
Display aspect ratio                     : 16:9
Frame rate mode                          : Constant
Frame rate                               : 25.000 FPS
Color space                              : YUV
Chroma subsampling                       : 4:2:0
Bit depth                                : 8 bits
Scan type                                : Progressive
Bits/(Pixel*Frame)                       : 0.139
Stream size                              : 317 MiB (84%)
Writing library                          : x264 core 142 r2479 dd79a61
 Encoding settings                        : cabac=1 / ref=5 / deblock=1:-1:-1 / analyse=0x3:0x113 / me=umh / subme=8 / psy=1 / psy_rd=1.00:0.15 / mixed_ref=1 / me_range=16 / chroma_me=1 / trellis=1 / 8x8dct=1 / cqm=0 / deadz / fast pskip=1 / chroma_qp_offset=-3 / threads=12 / lookahead_threads=2 / sliced_threads=0 / nr=0 / decimate=1 / interlaced=0 / bluray_compat=0 / c / bframes=3 / b_pyramid=2 / b_adapt=2 / b_bias=0 / direct=3 / weightb=1 / open_gop=0 / weightp=2 / keyint=250 / keyint_min=25 / scenecut=40 / intra_refresh=0 / rc_lookahead=50 / rc=2pass / mbtree=1 / bitrate=1000 / ratetol=1.0 / qcomp=0.60 / qpmin=0 / qpmax=69 / qpstep=4 / cplxblur=20.0 / qblur=0.5 / ip_ratio=1.40 / aq=1:1.00
Encoded date                             : UTC 2036-02-06 06:28:16
Tagged date                              : UTC 2036-02-06 06:28:16
Color range                              : Limited
Color primaries                          : BT.709
Transfer characteristics                 : BT.709
Matrix coefficients                      : BT.709

Audio
ID                                       : 2
Format                                   : AAC
Format/Info                              : Advanced Audio Codec
Format profile                           : LC
Codec ID                                 : 40
Duration                                 : 44 min 21 s
Bit rate mode                            : Variable
Bit rate                                 : 192 kb/s
Channel(s)                               : 2 channels
Channel positions                        : Front: L R
Sampling rate                            : 48.0 kHz
Frame rate                               : 46.875 FPS (1024 spf)
Compression mode                         : Lossy
Stream size                              : 59.9 MiB (16%)
Title                                    : Stereo
Default                                  : Yes
Alternate group                          : 1
Encoded date                             : UTC 2036-02-06 06:28:16
Tagged date                              : UTC 2036-02-06 06:28:16



[/mediainfo]
Download
File Container: MP4
Video/Audio Codec: H264 (HIGH) (AVC1) AAC (LC) (MP4A)
Video Resolution: 720x400
 
 
 
 
 

Show us some love

1 Response to "[RR/NF/OL/UR/CU] Wentworth S05E08 PDTV x264-NOGRP (379MB)"
06/27/17
11:50:09
Admin

RapidRAR re-uploaded with new RAR file(s) (users who couldn't download some parts need to download all parts again).

Leave a Comment

  • (never displayed)
  •  
        Members don't see captchas. Sign Up / Sign In
  • Notify me via email when someone responds.
  • Subscribe my Feeds
  • Facebook

Latest Episodes

Popular Movies and TV Shows

  • People Just Do Nothing
  • DuckTales
  • Miso Hungry
  • Stomping Ground
  • Late Night with Seth Meyers
  • Andy's Rainbow
  • Spider-Man
  • The Orville
  • Evil Things
  • Innocent Blood
  • Sniper: Ultimate Kill
  • Scorned
  • Mike Judge Presents: Tales from the Tour Bus
  • #Stuck
  • Room 104
  • Zoo
  • Subterranea
  • Chris Brown: Welcome to My Life
  • The Book of Henry
  • Gotham
  • Killing Gunther
  • Mr. Mercedes
  • I am Frankie
  • Lone Wolves
  • Bad Blood

Recent Comments