Sign Up   |   Sign In  

Announcements

Want to support us?
Buy a RapidRAR account from our resellers:
Buy or renew a NitroFlare account via THIS LINK

06/17

2017

No

Comments

Wentworth S05E09 PDTV x264-NOGRP
[RR/NF/OL/UR/CU]
Size: 444MB mp4 H264 (HIGH) (AVC1) / AC3 (AC-3) 720x400

Wentworth
Click on the image to see full size
[RR/NF/OL/UR/CU] Wentworth S05E09 PDTV x264-NOGRP (444MB) - Snapshot 1[RR/NF/OL/UR/CU] Wentworth S05E09 PDTV x264-NOGRP (444MB) - Snapshot 2
File Information
[URL=http://imagecurl.com/viewer.php?file=56482485484348313942.png][IMG]http://imagecurl.com/images/56482485484348313942_thumb.png[/IMG][/URL]
[URL=http://imagecurl.com/viewer.php?file=49527829389835308497.png][IMG]http://imagecurl.com/images/49527829389835308497_thumb.png[/IMG][/URL]
[URL=http://imagecurl.com/viewer.php?file=65062986711134223968.png][IMG]http://imagecurl.com/images/65062986711134223968_thumb.png[/IMG][/URL]
[URL=http://imagecurl.com/viewer.php?file=88217025970991180629.png][IMG]http://imagecurl.com/images/88217025970991180629_thumb.png[/IMG][/URL]
[URL=http://imagecurl.com/viewer.php?file=15234892984530033315.png][IMG]http://imagecurl.com/images/15234892984530033315_thumb.png[/IMG][/URL]
[URL=http://imagecurl.com/viewer.php?file=55610692082030227446.png][IMG]http://imagecurl.com/images/55610692082030227446_thumb.png[/IMG][/URL]



[mediainfo]
Video
ID                                       : 1
Format                                   : AVC
Format/Info                              : Advanced Video Codec
Format profile                           : [email protected]
Format settings, CABAC                   : Yes
Format settings, ReFrames                : 5 frames
Codec ID                                 : avc1
Codec ID/Info                            : Advanced Video Coding
Duration                                 : 44 min 48 s
Bit rate                                 : 1 000 kb/s
Width                                    : 720 pixels
Height                                   : 400 pixels
Display aspect ratio                     : 16:9
Frame rate mode                          : Constant
Frame rate                               : 25.000 FPS
Color space                              : YUV
Chroma subsampling                       : 4:2:0
Bit depth                                : 8 bits
Scan type                                : Progressive
Bits/(Pixel*Frame)                       : 0.139
Stream size                              : 320 MiB (72%)
Writing library                          : x264 core 142 r2479 dd79a61
 Encoding settings                        : cabac=1 / ref=5 / deblock=1:-1:-1 / analyse=0x3:0x113 / me=umh / subme=8 / psy=1 / psy_rd=1.00:0.15 / mixed_ref=1 / me_range=16 / chroma_me=1 / trellis=1 / 8x8dct=1 / cqm=0 / deadz / fast pskip=1 / chroma_qp_offset=-3 / threads=12 / lookahead_threads=2 / sliced_threads=0 / nr=0 / decimate=1 / interlaced=0 / bluray_compat=0 / c / bframes=3 / b_pyramid=2 / b_adapt=2 / b_bias=0 / direct=3 / weightb=1 / open_gop=0 / weightp=2 / keyint=250 / keyint_min=25 / scenecut=40 / intra_refresh=0 / rc_lookahead=50 / rc=2pass / mbtree=1 / bitrate=1000 / ratetol=1.0 / qcomp=0.60 / qpmin=0 / qpmax=69 / qpstep=4 / cplxblur=20.0 / qblur=0.5 / ip_ratio=1.40 / aq=1:1.00
Encoded date                             : UTC 2036-02-06 06:28:16
Tagged date                              : UTC 2036-02-06 06:28:16
Color range                              : Limited
Color primaries                          : BT.709
Transfer characteristics                 : BT.709
Matrix coefficients                      : BT.709

Audio
ID                                       : 2
Format                                   : AC-3
Format/Info                              : Audio Coding 3
Format settings, Endianness              : Big
Codec ID                                 : ac-3
Duration                                 : 44 min 48 s
Bit rate mode                            : Constant
Bit rate                                 : 384 kb/s
Channel(s)                               : 2 channels
Channel positions                        : Front: L R
Sampling rate                            : 48.0 kHz
Frame rate                               : 31.250 FPS (1536 spf)
Bit depth                                : 16 bits
Compression mode                         : Lossy
Stream size                              : 123 MiB (28%)
Title                                    : Stereo
Language                                 : English
Service kind                             : Complete Main
Default                                  : Yes
Alternate group                          : 1
Encoded date                             : UTC 2036-02-06 06:28:16
Tagged date                              : UTC 2036-02-06 06:28:16



[/mediainfo]
Download
File Container: MP4
Video/Audio Codec: H264 (HIGH) (AVC1) AC3 (AC-3)
Video Resolution: 720x400
 
 
 
 
 

Show us some love

Leave a Comment

  • (never displayed)
  •  
        Members don't see captchas. Sign Up / Sign In
  • Notify me via email when someone responds.
  • Subscribe my Feeds
  • Facebook

Latest Episodes

Popular Movies and TV Shows

  • People Just Do Nothing
  • DuckTales
  • Miso Hungry
  • Stomping Ground
  • Rule of Three
  • The Orville
  • Spider-Man
  • Evil Things
  • Casualty
  • Innocent Blood
  • Scorned
  • Layover
  • Mike Judge Presents: Tales from the Tour Bus
  • #Stuck
  • Room 104
  • Zoo
  • Subterranea
  • Chris Brown: Welcome to My Life
  • The Book of Henry
  • Gotham
  • Killing Gunther
  • Mr. Mercedes
  • I am Frankie
  • Lone Wolves
  • Bad Blood

Recent Comments