Sign Up   |   Sign In  

Announcements

Want to support us?
Buy a RapidRAR account from our resellers:
Buy or renew a NitroFlare account via THIS LINK

06/17

2017

No

Comments

Wentworth S05E10 PDTV x264-NOGRP
[RR/NF/OL/OLw/UR/CU]
Size: 511MB MP4 Streaming mp4 H264 (HIGH) (AVC1) / AC3 (AC-3) 720x400

Wentworth
Click on the image to see full size
[RR/NF/OL/OLw/UR/CU] Wentworth S05E10 PDTV x264-NOGRP (511MB) - Snapshot 1[RR/NF/OL/OLw/UR/CU] Wentworth S05E10 PDTV x264-NOGRP (511MB) - Snapshot 2
File Information
[URL=http://imagecurl.com/viewer.php?file=57078384599086530363.png][IMG]http://imagecurl.com/images/57078384599086530363_thumb.png[/IMG][/URL]
[URL=http://imagecurl.com/viewer.php?file=44166888199959233560.png][IMG]http://imagecurl.com/images/44166888199959233560_thumb.png[/IMG][/URL]
[URL=http://imagecurl.com/viewer.php?file=28049246042376854609.png][IMG]http://imagecurl.com/images/28049246042376854609_thumb.png[/IMG][/URL]
[URL=http://imagecurl.com/viewer.php?file=27963600078947801008.png][IMG]http://imagecurl.com/images/27963600078947801008_thumb.png[/IMG][/URL]
[URL=http://imagecurl.com/viewer.php?file=78598094357668328438.png][IMG]http://imagecurl.com/images/78598094357668328438_thumb.png[/IMG][/URL]
[URL=http://imagecurl.com/viewer.php?file=06755824638737338858.png][IMG]http://imagecurl.com/images/06755824638737338858_thumb.png[/IMG][/URL]



[mediainfo]
Video
ID                                       : 1
Format                                   : AVC
Format/Info                              : Advanced Video Codec
Format profile                           : [email protected]
Format settings, CABAC                   : Yes
Format settings, ReFrames                : 5 frames
Codec ID                                 : avc1
Codec ID/Info                            : Advanced Video Coding
Duration                                 : 45 min 4 s
Bit rate                                 : 1 200 kb/s
Width                                    : 720 pixels
Height                                   : 400 pixels
Display aspect ratio                     : 16:9
Frame rate mode                          : Constant
Frame rate                               : 25.000 FPS
Color space                              : YUV
Chroma subsampling                       : 4:2:0
Bit depth                                : 8 bits
Scan type                                : Progressive
Bits/(Pixel*Frame)                       : 0.167
Stream size                              : 387 MiB (76%)
Writing library                          : x264 core 142 r2479 dd79a61
 Encoding settings                        : cabac=1 / ref=5 / deblock=1:-1:-1 / analyse=0x3:0x113 / me=umh / subme=8 / psy=1 / psy_rd=1.00:0.15 / mixed_ref=1 / me_range=16 / chroma_me=1 / trellis=1 / 8x8dct=1 / cqm=0 / deadz / fast pskip=1 / chroma_qp_offset=-3 / threads=12 / lookahead_threads=2 / sliced_threads=0 / nr=0 / decimate=1 / interlaced=0 / bluray_compat=0 / c / bframes=3 / b_pyramid=2 / b_adapt=2 / b_bias=0 / direct=3 / weightb=1 / open_gop=0 / weightp=2 / keyint=250 / keyint_min=25 / scenecut=40 / intra_refresh=0 / rc_lookahead=50 / rc=2pass / mbtree=1 / bitrate=1200 / ratetol=1.0 / qcomp=0.60 / qpmin=0 / qpmax=69 / qpstep=4 / cplxblur=20.0 / qblur=0.5 / ip_ratio=1.40 / aq=1:1.00
Encoded date                             : UTC 2036-02-06 06:28:16
Tagged date                              : UTC 2036-02-06 06:28:16
Color range                              : Limited
Color primaries                          : BT.709
Transfer characteristics                 : BT.709
Matrix coefficients                      : BT.709

Audio
ID                                       : 2
Format                                   : AC-3
Format/Info                              : Audio Coding 3
Format settings, Endianness              : Big
Codec ID                                 : ac-3
Duration                                 : 45 min 4 s
Bit rate mode                            : Constant
Bit rate                                 : 384 kb/s
Channel(s)                               : 2 channels
Channel positions                        : Front: L R
Sampling rate                            : 48.0 kHz
Frame rate                               : 31.250 FPS (1536 spf)
Bit depth                                : 16 bits
Compression mode                         : Lossy
Stream size                              : 124 MiB (24%)
Title                                    : Stereo
Language                                 : English
Service kind                             : Complete Main
Default                                  : Yes
Alternate group                          : 1
Encoded date                             : UTC 2036-02-06 06:28:16
Tagged date                              : UTC 2036-02-06 06:28:16



[/mediainfo]
Download
File Container: MP4
Video/Audio Codec: H264 (HIGH) (AVC1) AC3 (AC-3)
Video Resolution: 720x400
 
 
 
 
 
Watch Online [MP4]

Show us some love

Leave a Comment

  • (never displayed)
  •  
        Members don't see captchas. Sign Up / Sign In
  • Notify me via email when someone responds.
  • Subscribe my Feeds
  • Facebook

Latest Episodes

Popular Movies and TV Shows

  • iZombie
  • Tales
  • Okja
  • Whose Line Is It Anyway?
  • By Any Means
  • Innocence
  • Hardcore Pawn
  • Animal Kingdom
  • The Lost City of Z
  • Pretty Little Liars
  • The Girl King
  • Transformers: The Last Knight
  • A Few Less Men
  • Wrecked
  • Downward Dog
  • Their Finest
  • Black Butterfly
  • Preacher
  • Broken
  • After School Special
  • Alien: Covenant
  • Stitchers
  • Glastonbury 2017
  • Don't Hang Up
  • Silicon Valley

Recent Comments

  • thaone:

    Thanks

  • LilSkippy:

    UL is dead. Can you re up

  • thaone:

    Thanks

  • thaone:

    Thanks

  • thaone:

    Thanks

  • GodzMustBeCrazy:

    No English rip?

  • hevc fan:

    admin: we are still missing an 1080 WEB-DL x265, its not in the queue... ;(

  • Buck:

    The link for uploaded is offline. Could you Plesse out it back online?

  • Magus1971: Uploaded.net as a storage (uploader) site is defunct. Was with them for years and was always happy, ...
  • amer220_amer220: Files deleted please resubmitPlz re-uploaded Plz re-uploaded Plz re-uploaded