Sign Up   |   Sign In  
Wonderful WorldSaturday Night LiveSin CityTracesSin City: A Dame to Kill ForNorth Korea: Inside the Mind of a DictatorBeacon 23ParishA Gentleman in MoscowImmoral WomenWillowRiddle of FireGrey's AnatomyBlue BloodsS.W.A.T.Pacific Rim: UprisingScrambledThe War on ChildrenFalloutFire CountryStar Trek: DiscoveryT2 TrainspottingWhiplashDamagedSugar

Announcements

02/28

2024

1

Comments

Will Trent S02E02 Its the Work I Signed Up for 1080p AMZN WEB-DL DDP5 1 H 264-FLUX
[RR/NF]
Size: 3GB mkv H264 (HIGH) / EAC3  HD  1920x1080

Will Trent
File Information
[img]http://lookpic.com/cdn/i2/t/0228202402180616-1.jpg[/img]
[img]http://lookpic.com/cdn/i2/t/0228202402180616-2.jpg[/img]
[img]http://lookpic.com/cdn/i2/t/0228202402180616-3.jpg[/img]

General
Unique ID                                : 125752697989933945037449633944857190511 (0x5E9B16B2B9A573E26EA66F63153FA06F)
Complete name                            : Will.Trent.S02E02.Its.the.Work.I.Signed.Up.for.1080p.AMZN.WEB-DL.DDP5.1.H.264-FLUX.mkv
Format                                   : Matroska
Format version                           : Version 4
File size                                : 3.03 GiB
Duration                                 : 43 min 3 s
Overall bit rate                         : 10.1 Mb/s
Frame rate                               : 23.976 FPS
Writing application                      : mkvmerge v82.0 ('I'm The President') 64-bit
Writing library                          : libebml v1.4.5 + libmatroska v1.7.1

Video
ID                                       : 1
Format                                   : AVC
Format/Info                              : Advanced Video Codec
Format profile                           : High@L4
Format settings                          : CABAC / 4 Ref Frames
Format settings, CABAC                   : Yes
Format settings, Reference frames        : 4 frames
Codec ID                                 : V_MPEG4/ISO/AVC
Duration                                 : 43 min 3 s
Bit rate mode                            : Constant
Bit rate                                 : 9 442 kb/s
Nominal bit rate                         : 10 000 kb/s
Width                                    : 1 920 pixels
Height                                   : 1 080 pixels
Display aspect ratio                     : 16:9
Frame rate mode                          : Constant
Frame rate                               : 23.976 (24000/1001) FPS
Color space                              : YUV
Chroma subsampling                       : 4:2:0
Bit depth                                : 8 bits
Scan type                                : Progressive
Bits/(Pixel*Frame)                       : 0.190
Stream size                              : 2.84 GiB (94%)
Language                                 : English (US)
Default                                  : Yes
Forced                                   : No
Color range                              : Limited
Color primaries                          : BT.709
Transfer characteristics                 : BT.709
Matrix coefficients                      : BT.709

Audio
ID                                       : 2
Format                                   : E-AC-3
Format/Info                              : Enhanced AC-3
Commercial name                          : Dolby Digital Plus
Codec ID                                 : A_EAC3
Duration                                 : 43 min 3 s
Bit rate mode                            : Constant
Bit rate                                 : 640 kb/s
Channel(s)                               : 6 channels
Channel layout                           : L R C LFE Ls Rs
Sampling rate                            : 48.0 kHz
Frame rate                               : 31.250 FPS (1536 SPF)
Compression mode                         : Lossy
Stream size                              : 197 MiB (6%)
Language                                 : English
Service kind                             : Complete Main
Default                                  : Yes
Forced                                   : No

Text #1
ID                                       : 3
Format                                   : UTF-8
Codec ID                                 : S_TEXT/UTF8
Codec ID/Info                            : UTF-8 Plain Text
Duration                                 : 42 min 19 s
Bit rate                                 : 82 b/s
Frame rate                               : 0.308 FPS
Count of elements                        : 782
Stream size                              : 25.6 KiB (0%)
Language                                 : English (US)
Default                                  : No
Forced                                   : No

Text #2
ID                                       : 4
Format                                   : UTF-8
Codec ID                                 : S_TEXT/UTF8
Codec ID/Info                            : UTF-8 Plain Text
Duration                                 : 42 min 20 s
Bit rate                                 : 91 b/s
Frame rate                               : 0.335 FPS
Count of elements                        : 852
Stream size                              : 28.3 KiB (0%)
Title                                    : SDH
Language                                 : English (US)
Default                                  : No
Forced                                   : No

Menu
00:00:00.000                             : en:Scene 1
00:42:58.000                             : en:End Credits



Download
File Container: MKV
Video/Audio Codec: H264 (HIGH) EAC3
Video Resolution: 1920x1080

1 Response to "[RR/NF] Will Trent S02E02 Its the Work I Signed Up for 1080p AMZN WEB-DL DDP5 1 H 264-FLUX (3GB)"
02/28/24
13:18:21
ReadyPlayerOne

Thank You

Please Login to post a comment.
If you don't have any account, please Register.
  • Subscribe my Feeds
  • Facebook
Encoding Queue:  x264  x265

Latest Episodes

Popular Movies and TV Shows

  • Wonderful World
  • Saturday Night Live
  • Sin City
  • Traces
  • Sin City: A Dame to Kill For
  • North Korea: Inside the Mind of a Dictator
  • Beacon 23
  • Parish
  • A Gentleman in Moscow
  • Immoral Women
  • Willow
  • Riddle of Fire
  • Grey's Anatomy
  • Blue Bloods
  • S.W.A.T.
  • Pacific Rim: Uprising
  • Scrambled
  • The War on Children
  • Fallout
  • Fire Country
  • Star Trek: Discovery
  • T2 Trainspotting
  • Whiplash
  • Damaged
  • Sugar

Recent Comments

  • mentalityx:

    Rad bloke

  • DownloadHostInspector:

    so far these RMTeam uploads always have a working link. DownloadHostInspector approved!

  • DownloadHostInspector:

    ah yes, this upload has a host that works. clicknupload. DownloadHostInspector approved!

  • DownloadHostInspector: Why are all the download hosts trash? none of them let you download it
  • Qua4ratic:

    clicknupload link plz

  • ppoo:

    Please, can you add "Real Time with Bill Maher S22E11" ??

  • theahtisham:

    Kindly upload Ep. 3 and 4 as well.

  • Kudzu: Update on sound issue, File's codec info says stereo but is only a the left channel If I switch i...
  • Admin:

    kang
    Getting error while encoding, sorry

Archives