Sign Up   |   Sign In  
WalkerReginald the VampireMacGyverBoys on Film 21: Beautiful SecretNo Country for Old MenMoviePass, MovieCrashFuriosa: A Mad Max SagaThe Fall GuyAutoeroticWWE NXTUnder the BridgeLaw & Order: Organized CrimeDark MatterMasterChef AustraliaThe Feeling That the Time for Doing Something Has PassedNevada SmithThe Big Door PrizeTarotLootWWE RawCSI: VegasYour Mother's SonMahal ko ang mahal moCivil WarThe Daily Show

Announcements

04/10

2024

1

Comments

Will Trent S02E06 We Are Family 720p AMZN WEB-DL DDP5 1 H 264-FLUX
[RR/NF]
Size: 2GB mkv H264 (HIGH) / EAC3  HD  1280x720

Will Trent
File Information
[img]http://lookpic.com/cdn/i2/t/0410202406443627-1.jpg[/img]
[img]http://lookpic.com/cdn/i2/t/0410202406443627-2.jpg[/img]
[img]http://lookpic.com/cdn/i2/t/0410202406443627-3.jpg[/img]

General
Unique ID                                : 43890298978299993975595775241146340472 (0x2104F6CFB815B6B6FD81EE87C9FC1478)
Complete name                            : Will Trent S02E06 We Are Family 720p AMZN WEB-DL DDP5 1 H 264-FLUX.mkv
Format                                   : Matroska
Format version                           : Version 4
File size                                : 1.96 GiB
Duration                                 : 42 min 56 s
Overall bit rate                         : 6 525 kb/s
Frame rate                               : 23.976 FPS
Writing application                      : mkvmerge v82.0 ('I'm The President') 64-bit
Writing library                          : libebml v1.4.5 + libmatroska v1.7.1

Video
ID                                       : 1
Format                                   : AVC
Format/Info                              : Advanced Video Codec
Format profile                           : High@L3.1
Format settings                          : CABAC / 4 Ref Frames
Format settings, CABAC                   : Yes
Format settings, Reference frames        : 4 frames
Codec ID                                 : V_MPEG4/ISO/AVC
Duration                                 : 42 min 56 s
Bit rate mode                            : Constant
Bit rate                                 : 6 000 kb/s
Width                                    : 1 280 pixels
Height                                   : 720 pixels
Display aspect ratio                     : 16:9
Frame rate mode                          : Constant
Frame rate                               : 23.976 (24000/1001) FPS
Color space                              : YUV
Chroma subsampling                       : 4:2:0
Bit depth                                : 8 bits
Scan type                                : Progressive
Bits/(Pixel*Frame)                       : 0.272
Stream size                              : 1.76 GiB (90%)
Language                                 : English (US)
Default                                  : Yes
Forced                                   : No
Color range                              : Limited
Color primaries                          : BT.709
Transfer characteristics                 : BT.709
Matrix coefficients                      : BT.709

Audio
ID                                       : 2
Format                                   : E-AC-3
Format/Info                              : Enhanced AC-3
Commercial name                          : Dolby Digital Plus
Codec ID                                 : A_EAC3
Duration                                 : 42 min 56 s
Bit rate mode                            : Constant
Bit rate                                 : 640 kb/s
Channel(s)                               : 6 channels
Channel layout                           : L R C LFE Ls Rs
Sampling rate                            : 48.0 kHz
Frame rate                               : 31.250 FPS (1536 SPF)
Compression mode                         : Lossy
Stream size                              : 197 MiB (10%)
Language                                 : English
Service kind                             : Complete Main
Default                                  : Yes
Forced                                   : No

Text #1
ID                                       : 3
Format                                   : UTF-8
Codec ID                                 : S_TEXT/UTF8
Codec ID/Info                            : UTF-8 Plain Text
Duration                                 : 42 min 13 s
Bit rate                                 : 99 b/s
Frame rate                               : 0.359 FPS
Count of elements                        : 910
Stream size                              : 30.9 KiB (0%)
Language                                 : English (US)
Default                                  : No
Forced                                   : No

Text #2
ID                                       : 4
Format                                   : UTF-8
Codec ID                                 : S_TEXT/UTF8
Codec ID/Info                            : UTF-8 Plain Text
Duration                                 : 42 min 13 s
Bit rate                                 : 105 b/s
Frame rate                               : 0.379 FPS
Count of elements                        : 959
Stream size                              : 32.7 KiB (0%)
Title                                    : SDH
Language                                 : English (US)
Default                                  : No
Forced                                   : No

Menu
00:00:00.000                             : en:Scene 1
00:00:02.000                             : en:Recap
00:00:32.000                             : en:Scene 2
00:42:16.000                             : en:End Credits



Download
File Container: MKV
Video/Audio Codec: H264 (HIGH) EAC3
Video Resolution: 1280x720

1 Response to "[RR/NF] Will Trent S02E06 We Are Family 720p AMZN WEB-DL DDP5 1 H 264-FLUX (2GB)"
04/10/24
13:02:01
ReadyPlayerOne

Thank You

Please Login to post a comment.
If you don't have any account, please Register.
  • Subscribe my Feeds
  • Facebook
Encoding Queue:  x264  x265

Latest Episodes

Popular Movies and TV Shows

  • Walker
  • Reginald the Vampire
  • MacGyver
  • Boys on Film 21: Beautiful Secret
  • No Country for Old Men
  • MoviePass, MovieCrash
  • Furiosa: A Mad Max Saga
  • The Fall Guy
  • Autoerotic
  • WWE NXT
  • Under the Bridge
  • Law & Order: Organized Crime
  • Dark Matter
  • MasterChef Australia
  • The Feeling That the Time for Doing Something Has Passed
  • Nevada Smith
  • The Big Door Prize
  • Tarot
  • Loot
  • WWE Raw
  • CSI: Vegas
  • Your Mother's Son
  • Mahal ko ang mahal mo
  • Civil War
  • The Daily Show

Recent Comments

  • dma: @admin It appears that ClickNupload is no longer usable for free users. Don't know about paying use...
  • Bionicone: Yea this is not the Bluray version. This is another Cam. This thing should be taken down. Do not dow...
  • spiderspinner: Bud:The same thing started happening to me last night and I've used four different browsers yet they...
  • timt:

    Junk, CAM

  • upx:

    WARNING:This is NOT a BluRay rip. It's a CAMrip.

  • Bud: Is clicknupload borked for anyone else now, or is it just me? In recent months it's only worked in...
  • mentalityx:

    Rad bloke!

  • waanaabe: I hope someone follows through with the rest! also, did not check every post but hoping future ones ...
  • Demonz:

    Holy popups ClickNupload

  • rambaldi70:

    this release sort cut! 1h33m12 !
    imdb - 1h 54m

  • rambaldi70: This release the first bad source 1h33m12 - stop the play this release sort cut! 1h33m12 ! imdb - 1h...
  • rambaldi70:

    this release sort cut! 1h33m12 !
    imdb - 1h 54m

  • dilliboy: Will we ever see these RMTeam releases ever again? I hope they're not lost to the digital graveyard ...
  • kang:

    NitroFlare's link is missing...

  • kang:

    NitroFlare's link is missing...

  • tchamast:

    @Wrapt

    I've seen that too, don't know why.

  • Rafi85: Hi thx for the 14th season. Is it possible to reupload some episodes plz they were removed. These ar...
  • KubrickFan:

    Any possibility of a fresh link for this?

  • GubeShitemon: This is a different movie to the artwork version. Not the Dylan McDermott film but the Ben Affleck f...
  • drorsabi1:

    @admin
    Please add "My Adventures With Superman Season 2 "

Archives