Sign Up   |   Sign In  

Announcements

Want to support us?
Buy a RapidRAR account from our resellers:
Buy or renew a NitroFlare account via THIS LINK
We'll stop uploading files to Uploaded.net in December 2017.

03/15

2016

No

Comments

Workaholics S06E09 WEB-DL x264-RARBG
[RR/UL/HuF]
Size: 187MB mp4 H264 (HIGH) (AVC1) / AAC (LC) (MP4A) 720x400 +Subtitle

Workaholics
Click on the image to see full size
[RR/UL/HuF] Workaholics S06E09 WEB-DL x264-RARBG (187MB) - Snapshot 1[RR/UL/HuF] Workaholics S06E09 WEB-DL x264-RARBG (187MB) - Snapshot 2
File Information
[screenshots]
[URL=http://imagecurl.com/viewer.php?file=10253693678652565743.png][IMG]http://imagecurl.com/images/10253693678652565743_thumb.png[/IMG][/URL]
[URL=http://imagecurl.com/viewer.php?file=38818468431431163431.png][IMG]http://imagecurl.com/images/38818468431431163431_thumb.png[/IMG][/URL]

[/screenshots]


[mediainfo]
Video
ID                                       : 1
Format                                   : AVC
Format/Info                              : Advanced Video Codec
Format profile                           : [email protected]
Format settings, CABAC                   : Yes
Format settings, ReFrames                : 5 frames
Codec ID                                 : avc1
Codec ID/Info                            : Advanced Video Coding
Duration                                 : 21mn 25s
Bit rate                                 : 1 027 Kbps
Width                                    : 720 pixels
Height                                   : 400 pixels
Display aspect ratio                     : 16:9
Original display aspect ratio            : 16:9
Frame rate mode                          : Constant
Frame rate                               : 23.976 (24000/1001) fps
Color space                              : YUV
Chroma subsampling                       : 4:2:0
Bit depth                                : 8 bits
Scan type                                : Progressive
Bits/(Pixel*Frame)                       : 0.149
Stream size                              : 157 MiB (88%)
Title                                    : RARBG.COM - Workaholics.S06E09.WEB-DL.x264-RARBG
Writing library                          : x264 core 148 r2597M e86f3a1
 Encoding settings                        : cabac=1 / ref=5 / deblock=1:-1:-1 / analyse=0x3:0x113 / me=umh / subme=9 / psy=1 / psy_rd=1.00:0.15 / mixed_ref=1 / me_range=16 / chroma_me=1 / trellis=2 / 8x8dct=1 / cqm=0 / deadz / fast pskip=1 / chroma_qp_offset=-3 / threads=12 / lookahead_threads=1 / sliced_threads=0 / nr=0 / decimate=1 / interlaced=0 / bluray_compat=0 / c / bframes=3 / b_pyramid=2 / b_adapt=2 / b_bias=0 / direct=3 / weightb=1 / open_gop=0 / weightp=2 / keyint=250 / keyint_min=23 / scenecut=40 / intra_refresh=0 / rc_lookahead=50 / rc=crf / mbtree=1 / crf=19.0 / qcomp=0.60 / qpmin=0 / qpmax=69 / qpstep=4 / ip_ratio=1.40 / aq=1:1.00
Language                                 : English
Encoded date                             : UTC 2016-03-15 04:53:47
Tagged date                              : UTC 2016-03-15 04:53:47

Audio
ID                                       : 2
Format                                   : AAC
Format/Info                              : Advanced Audio Codec
Format profile                           : LC
Codec ID                                 : 40
Duration                                 : 21mn 25s
Bit rate mode                            : Constant
Bit rate                                 : 128 Kbps
Channel(s)                               : 2 channels
Channel positions                        : Front: L R
Sampling rate                            : 48.0 KHz
Frame rate                               : 46.875 fps (1024 spf)
Compression mode                         : Lossy
Stream size                              : 19.6 MiB (11%)
Title                                    : RARBG.COM - Workaholics.S06E09.WEB-DL.x264-RARBG
Language                                 : English
Default                                  : Yes
Alternate group                          : 1
Encoded date                             : UTC 2016-03-15 04:53:47
Tagged date                              : UTC 2016-03-15 04:53:47



[/mediainfo]
Download
File Container: MP4
Video/Audio Codec: H264 (HIGH) (AVC1) AAC (LC) (MP4A)
Video Resolution: 720x400
RAR Recovery Record: 5% (How to repair corrupted archive RAR file?)
 
 
  Link(s) are dead.

Show us some love

Leave a Comment

  • (never displayed)
  •  
        Members don't see captchas. Sign Up / Sign In
  • Notify me via email when someone responds.
  • Subscribe my Feeds
  • Facebook

Latest Episodes

Popular Movies and TV Shows

  • The Shannara Chronicles
  • Mr. Robot
  • Red Dwarf
  • Hacker
  • The Dark Tower
  • Cage Dive
  • The Blacklist
  • Broad City
  • Riverdale
  • Atomic Blonde
  • American Made
  • War for the Planet of the Apes
  • Designated Survivor
  • SEAL Team
  • Modern Family
  • Brigadoon
  • Gu
  • Barry Lyndon
  • South Park
  • Chicago P.D.
  • Criminal Minds
  • Body Snatchers
  • Bears
  • A Stork's Journey
  • The Flash

Recent Comments

  • Ulrich_27:

    why the hell do you never use clicknupload for the 1080p releases?!

  • meridian: @x265addictUsing settings similar to PSA and Crazy4TV, a 40-45 minute episode takes 25-30 minutes to...
  • thaone:

    Thank You

  • b007: Thank you SO MUCH for uploading eps 2-4. I've been waiting for them and can finally enjoy them. Also...
  • thaone:

    Thank You

  • thaone:

    Thank You

  • thaone:

    Thank You

  • thaone:

    Thank You

  • x265addict: i wonder if any of the groups you all mentioned here have access to a supercomputer, how long it wou...
  • oxhey: Search for this and make it 265.Bobs.Burgers.S08E02.The.Silence.of.the.Louise.1080p.AMZN.WEBRip.DDP5...