Sign Up   |   Sign In  
The RookieUnder the BridgeWWE NXTThe Fall GuyReptiliansHeadshotDark MatterWill TrentFBIMoonedBoy Kills WorldGekijouban soushuuhen Ôbârôdo: Shikkoku no eiyuuThe Cleaning LadyThe Good DoctorFBI: Most WantedThe Manchurian CandidateVisionsExpend4blesFBI: InternationalWWE RawThe VeilSeize Them!The Name of the Rose8 Found DeadThe Simpsons

Announcements

04/10

2024

1

Comments

X-Men 97 S01E05 Remember It 1080p DSNP WEB-DL DDP5 1 Atmos H 264-FLUX
[RR/NF/CU]
Size: 1.9GB mkv H264 (HIGH) / EAC3  HD  1920x1080

X-Men '97
File Information
[img]http://lookpic.com/cdn/i2/t/0410202411051519-1.jpg[/img]
[img]http://lookpic.com/cdn/i2/t/0410202411051519-2.jpg[/img]
[img]http://lookpic.com/cdn/i2/t/0410202411051519-3.jpg[/img]

General
Unique ID                                : 231064970253040827437972869732535349037 (0xADD57E9994316E03BA9C1799E113AF2D)
Complete name                            : X-Men 97 S01E05 Remember It 1080p DSNP WEB-DL DDP5 1 Atmos H 264-FLUX.mkv
Format                                   : Matroska
Format version                           : Version 4
File size                                : 1.94 GiB
Duration                                 : 34 min 42 s
Overall bit rate mode                    : Variable
Overall bit rate                         : 8 006 kb/s
Frame rate                               : 24.000 FPS
Writing application                      : mkvmerge v83.0 ('Circle Of Friends') 64-bit
Writing library                          : libebml v1.4.5 + libmatroska v1.7.1

Video
ID                                       : 1
Format                                   : AVC
Format/Info                              : Advanced Video Codec
Format profile                           : High@L4
Format settings                          : CABAC / 4 Ref Frames
Format settings, CABAC                   : Yes
Format settings, Reference frames        : 4 frames
Codec ID                                 : V_MPEG4/ISO/AVC
Duration                                 : 34 min 42 s
Bit rate mode                            : Variable
Bit rate                                 : 7 232 kb/s
Maximum bit rate                         : 12.7 Mb/s
Width                                    : 1 920 pixels
Height                                   : 1 080 pixels
Display aspect ratio                     : 16:9
Frame rate mode                          : Constant
Frame rate                               : 24.000 FPS
Color space                              : YUV
Chroma subsampling                       : 4:2:0
Bit depth                                : 8 bits
Scan type                                : Progressive
Bits/(Pixel*Frame)                       : 0.145
Time code of first frame                 : 00:00:00:0000000000
Stream size                              : 1.75 GiB (90%)
Language                                 : English
Default                                  : Yes
Forced                                   : No
Color range                              : Limited
Color primaries                          : BT.709
Transfer characteristics                 : BT.709
Matrix coefficients                      : BT.709

Audio
ID                                       : 2
Format                                   : E-AC-3 JOC
Format/Info                              : Enhanced AC-3 with Joint Object Coding
Commercial name                          : Dolby Digital Plus with Dolby Atmos
Codec ID                                 : A_EAC3
Duration                                 : 34 min 42 s
Bit rate mode                            : Constant
Bit rate                                 : 768 kb/s
Channel(s)                               : 6 channels
Channel layout                           : L R C LFE Ls Rs
Sampling rate                            : 48.0 kHz
Frame rate                               : 31.250 FPS (1536 SPF)
Compression mode                         : Lossy
Stream size                              : 191 MiB (10%)
Language                                 : English
Service kind                             : Complete Main
Default                                  : Yes
Forced                                   : No
Complexity index                         : 16
Number of dynamic objects                : 15
Bed channel count                        : 1 channel
Bed channel configuration                : LFE

Text #1
ID                                       : 3
Format                                   : UTF-8
Codec ID                                 : S_TEXT/UTF8
Codec ID/Info                            : UTF-8 Plain Text
Duration                                 : 1 s 416 ms
Bit rate                                 : 96 b/s
Frame rate                               : 0.706 FPS
Count of elements                        : 1
Stream size                              : 17.0 Bytes (0%)
Title                                    : Forced
Language                                 : English
Default                                  : Yes
Forced                                   : Yes

Text #2
ID                                       : 4
Format                                   : UTF-8
Codec ID                                 : S_TEXT/UTF8
Codec ID/Info                            : UTF-8 Plain Text
Duration                                 : 32 min 34 s
Bit rate                                 : 64 b/s
Frame rate                               : 0.242 FPS
Count of elements                        : 472
Stream size                              : 15.4 KiB (0%)
Language                                 : English
Default                                  : No
Forced                                   : No

Text #3
ID                                       : 5
Format                                   : UTF-8
Codec ID                                 : S_TEXT/UTF8
Codec ID/Info                            : UTF-8 Plain Text
Duration                                 : 32 min 34 s
Bit rate                                 : 68 b/s
Frame rate                               : 0.252 FPS
Count of elements                        : 492
Stream size                              : 16.3 KiB (0%)
Title                                    : SDH
Language                                 : English
Default                                  : No
Forced                                   : No

Text #4
ID                                       : 6
Format                                   : UTF-8
Codec ID                                 : S_TEXT/UTF8
Codec ID/Info                            : UTF-8 Plain Text
Duration                                 : 34 min 35 s
Bit rate                                 : 62 b/s
Frame rate                               : 0.231 FPS
Count of elements                        : 479
Stream size                              : 15.8 KiB (0%)
Language                                 : Czech
Default                                  : No
Forced                                   : No

Text #5
ID                                       : 7
Format                                   : UTF-8
Codec ID                                 : S_TEXT/UTF8
Codec ID/Info                            : UTF-8 Plain Text
Duration                                 : 34 min 38 s
Bit rate                                 : 58 b/s
Frame rate                               : 0.148 FPS
Count of elements                        : 307
Stream size                              : 14.8 KiB (0%)
Language                                 : Danish
Default                                  : No
Forced                                   : No

Text #6
ID                                       : 8
Format                                   : UTF-8
Codec ID                                 : S_TEXT/UTF8
Codec ID/Info                            : UTF-8 Plain Text
Duration                                 : 34 min 35 s
Bit rate                                 : 66 b/s
Frame rate                               : 0.225 FPS
Count of elements                        : 466
Stream size                              : 17.0 KiB (0%)
Language                                 : German
Default                                  : No
Forced                                   : No

Text #7
ID                                       : 9
Format                                   : UTF-8
Codec ID                                 : S_TEXT/UTF8
Codec ID/Info                            : UTF-8 Plain Text
Duration                                 : 34 min 35 s
Bit rate                                 : 121 b/s
Frame rate                               : 0.236 FPS
Count of elements                        : 489
Stream size                              : 30.7 KiB (0%)
Language                                 : Greek
Default                                  : No
Forced                                   : No

Text #8
ID                                       : 10
Format                                   : UTF-8
Codec ID                                 : S_TEXT/UTF8
Codec ID/Info                            : UTF-8 Plain Text
Duration                                 : 34 min 35 s
Bit rate                                 : 66 b/s
Frame rate                               : 0.233 FPS
Count of elements                        : 483
Stream size                              : 16.9 KiB (0%)
Title                                    : Latin American
Language                                 : Spanish (Latin America)
Default                                  : No
Forced                                   : No

Text #9
ID                                       : 11
Format                                   : UTF-8
Codec ID                                 : S_TEXT/UTF8
Codec ID/Info                            : UTF-8 Plain Text
Duration                                 : 34 min 35 s
Bit rate                                 : 66 b/s
Frame rate                               : 0.235 FPS
Count of elements                        : 487
Stream size                              : 16.8 KiB (0%)
Language                                 : Spanish (ES)
Default                                  : No
Forced                                   : No

Text #10
ID                                       : 12
Format                                   : UTF-8
Codec ID                                 : S_TEXT/UTF8
Codec ID/Info                            : UTF-8 Plain Text
Duration                                 : 34 min 35 s
Bit rate                                 : 59 b/s
Frame rate                               : 0.232 FPS
Count of elements                        : 482
Stream size                              : 15.1 KiB (0%)
Language                                 : Finnish
Default                                  : No
Forced                                   : No

Text #11
ID                                       : 13
Format                                   : UTF-8
Codec ID                                 : S_TEXT/UTF8
Codec ID/Info                            : UTF-8 Plain Text
Duration                                 : 34 min 35 s
Bit rate                                 : 62 b/s
Frame rate                               : 0.224 FPS
Count of elements                        : 464
Stream size                              : 15.9 KiB (0%)
Language                                 : French (FR)
Default                                  : No
Forced                                   : No

Text #12
ID                                       : 14
Format                                   : UTF-8
Codec ID                                 : S_TEXT/UTF8
Codec ID/Info                            : UTF-8 Plain Text
Duration                                 : 34 min 35 s
Bit rate                                 : 68 b/s
Frame rate                               : 0.235 FPS
Count of elements                        : 487
Stream size                              : 17.3 KiB (0%)
Language                                 : Hungarian
Default                                  : No
Forced                                   : No

Text #13
ID                                       : 15
Format                                   : UTF-8
Codec ID                                 : S_TEXT/UTF8
Codec ID/Info                            : UTF-8 Plain Text
Duration                                 : 34 min 35 s
Bit rate                                 : 65 b/s
Frame rate                               : 0.232 FPS
Count of elements                        : 482
Stream size                              : 16.7 KiB (0%)
Language                                 : Italian
Default                                  : No
Forced                                   : No

Text #14
ID                                       : 16
Format                                   : UTF-8
Codec ID                                 : S_TEXT/UTF8
Codec ID/Info                            : UTF-8 Plain Text
Duration                                 : 34 min 35 s
Bit rate                                 : 59 b/s
Frame rate                               : 0.200 FPS
Count of elements                        : 416
Stream size                              : 15.2 KiB (0%)
Language                                 : Japanese
Default                                  : No
Forced                                   : No

Text #15
ID                                       : 17
Format                                   : UTF-8
Codec ID                                 : S_TEXT/UTF8
Codec ID/Info                            : UTF-8 Plain Text
Duration                                 : 34 min 35 s
Bit rate                                 : 64 b/s
Frame rate                               : 0.237 FPS
Count of elements                        : 491
Stream size                              : 16.4 KiB (0%)
Language                                 : Korean
Default                                  : No
Forced                                   : No

Text #16
ID                                       : 18
Format                                   : UTF-8
Codec ID                                 : S_TEXT/UTF8
Codec ID/Info                            : UTF-8 Plain Text
Duration                                 : 34 min 35 s
Bit rate                                 : 62 b/s
Frame rate                               : 0.189 FPS
Count of elements                        : 393
Stream size                              : 15.8 KiB (0%)
Language                                 : Dutch
Default                                  : No
Forced                                   : No

Text #17
ID                                       : 19
Format                                   : UTF-8
Codec ID                                 : S_TEXT/UTF8
Codec ID/Info                            : UTF-8 Plain Text
Duration                                 : 34 min 35 s
Bit rate                                 : 58 b/s
Frame rate                               : 0.231 FPS
Count of elements                        : 479
Stream size                              : 14.7 KiB (0%)
Language                                 : Norwegian
Default                                  : No
Forced                                   : No

Text #18
ID                                       : 20
Format                                   : UTF-8
Codec ID                                 : S_TEXT/UTF8
Codec ID/Info                            : UTF-8 Plain Text
Duration                                 : 34 min 35 s
Bit rate                                 : 67 b/s
Frame rate                               : 0.229 FPS
Count of elements                        : 476
Stream size                              : 17.1 KiB (0%)
Language                                 : Polish
Default                                  : No
Forced                                   : No

Text #19
ID                                       : 21
Format                                   : UTF-8
Codec ID                                 : S_TEXT/UTF8
Codec ID/Info                            : UTF-8 Plain Text
Duration                                 : 34 min 35 s
Bit rate                                 : 70 b/s
Frame rate                               : 0.234 FPS
Count of elements                        : 485
Stream size                              : 17.9 KiB (0%)
Title                                    : Brazilian
Language                                 : Portuguese (BR)
Default                                  : No
Forced                                   : No

Text #20
ID                                       : 22
Format                                   : UTF-8
Codec ID                                 : S_TEXT/UTF8
Codec ID/Info                            : UTF-8 Plain Text
Duration                                 : 34 min 35 s
Bit rate                                 : 68 b/s
Frame rate                               : 0.233 FPS
Count of elements                        : 484
Stream size                              : 17.3 KiB (0%)
Language                                 : Portuguese (PT)
Default                                  : No
Forced                                   : No

Text #21
ID                                       : 23
Format                                   : UTF-8
Codec ID                                 : S_TEXT/UTF8
Codec ID/Info                            : UTF-8 Plain Text
Duration                                 : 34 min 35 s
Bit rate                                 : 66 b/s
Frame rate                               : 0.231 FPS
Count of elements                        : 480
Stream size                              : 16.7 KiB (0%)
Language                                 : Romanian
Default                                  : No
Forced                                   : No

Text #22
ID                                       : 24
Format                                   : UTF-8
Codec ID                                 : S_TEXT/UTF8
Codec ID/Info                            : UTF-8 Plain Text
Duration                                 : 34 min 35 s
Bit rate                                 : 61 b/s
Frame rate                               : 0.228 FPS
Count of elements                        : 473
Stream size                              : 15.5 KiB (0%)
Language                                 : Slovak
Default                                  : No
Forced                                   : No

Text #23
ID                                       : 25
Format                                   : UTF-8
Codec ID                                 : S_TEXT/UTF8
Codec ID/Info                            : UTF-8 Plain Text
Duration                                 : 34 min 35 s
Bit rate                                 : 52 b/s
Frame rate                               : 0.146 FPS
Count of elements                        : 304
Stream size                              : 13.3 KiB (0%)
Language                                 : Swedish
Default                                  : No
Forced                                   : No

Text #24
ID                                       : 26
Format                                   : UTF-8
Codec ID                                 : S_TEXT/UTF8
Codec ID/Info                            : UTF-8 Plain Text
Duration                                 : 34 min 35 s
Bit rate                                 : 55 b/s
Frame rate                               : 0.237 FPS
Count of elements                        : 491
Stream size                              : 14.0 KiB (0%)
Title                                    : Hong Kong
Language                                 : Chinese (HK)
Default                                  : No
Forced                                   : No

Text #25
ID                                       : 27
Format                                   : UTF-8
Codec ID                                 : S_TEXT/UTF8
Codec ID/Info                            : UTF-8 Plain Text
Duration                                 : 34 min 35 s
Bit rate                                 : 53 b/s
Frame rate                               : 0.237 FPS
Count of elements                        : 491
Stream size                              : 13.4 KiB (0%)
Title                                    : Traditional
Language                                 : Chinese (Traditional)
Default                                  : No
Forced                                   : No

Menu
00:00:04.000                             : en:Recap
00:01:00.458                             : en:Scene 1
00:01:00.542                             : en:Intro
00:02:10.083                             : en:Scene 2
00:08:07.417                             : en:Scene 3
00:15:23.500                             : en:Scene 4
00:26:19.750                             : en:Scene 5
00:32:45.708                             : en:Credits



Download
File Container: MKV
Video/Audio Codec: H264 (HIGH) EAC3
Video Resolution: 1920x1080

1 Response to "[RR/NF/CU] X-Men 97 S01E05 Remember It 1080p DSNP WEB-DL DDP5 1 Atmos H 264-FLUX (1.9GB)"
04/10/24
13:07:10
ReadyPlayerOne

Thank You

Please Login to post a comment.
If you don't have any account, please Register.
  • Subscribe my Feeds
  • Facebook
Encoding Queue:  x264  x265

Latest Episodes

Popular Movies and TV Shows

  • The Rookie
  • Under the Bridge
  • WWE NXT
  • The Fall Guy
  • Reptilians
  • Headshot
  • Dark Matter
  • Will Trent
  • FBI
  • Mooned
  • Boy Kills World
  • Gekijouban soushuuhen Ôbârôdo: Shikkoku no eiyuu
  • The Cleaning Lady
  • The Good Doctor
  • FBI: Most Wanted
  • The Manchurian Candidate
  • Visions
  • Expend4bles
  • FBI: International
  • WWE Raw
  • The Veil
  • Seize Them!
  • The Name of the Rose
  • 8 Found Dead
  • The Simpsons

Recent Comments

  • OldMovies:

    Has Czech subtitles but not English. Need forced English for the foreign language parts.

  • PROFessorMorrynarty: Would it be possible to upload 'Lego masters Australia' Series 6 Episode 6 Please? It's the only one...
  • mentalityx:

    Thx mate.

  • Bud: Is the search engine down for everyone, or just me? It just says 'You're forbidden!' whenever I lo...
  • 23d1:

    not episode 4 it is episode 3

  • 23d1:

    not episode 4 it is episode 3

  • 23d1:

    not episode 4 it is episode 3

  • 23d1:

    not episode 4 it is episode 3

  • aaroz88:

    Trimas!!

  • mptoo: I don't often ask this, infact this would be the first time, but I don't suppose there is any chance...
  • Cinque_Persson:

    btw:
    quote /quote
    is broken

  • gabrielsyme:

    Sorry but where is the clicknupload link?

  • mike1204:

    Is this episode doomed??? The RMX avi version is only 12 minutes long!!!

Archives