Sign Up   |   Sign In  
WalkerBoys on Film 21: Beautiful SecretThe Fall GuyThe Bold and the BeautifulMacGyverNo Country for Old MenFuriosa: A Mad Max SagaThe Feeling That the Time for Doing Something Has PassedAutoeroticUnder the BridgeWWE NXTRace Across the WorldDark MatterMasterChef AustraliaThe Big Door PrizeNevada SmithCivil War12 StrongLootWWE RawCSI: VegasYour Mother's SonMahal ko ang mahal moThe First OmenThe Daily Show

Announcements

04/10

2024

1

Comments

X-Men 97 S01E05 Remember It 720p DSNP WEB-DL DD 5 1 Atmos H 264-playWEB
[RR/NF/CU]
Size: 1.1GB mkv H264 (HIGH) / EAC3  HD  1280x720

X-Men '97
File Information
[img]http://lookpic.com/cdn/i2/t/0410202412143896-1.jpg[/img]
[img]http://lookpic.com/cdn/i2/t/0410202412143896-2.jpg[/img]
[img]http://lookpic.com/cdn/i2/t/0410202412143896-3.jpg[/img]

General
Unique ID                                : 191324981072114520995234621501415721110 (0x8FEFD9DC28B81D7322428C6531398896)
Complete name                            : X-Men 97 S01E05 Remember It 720p DSNP WEB-DL DD 5 1 Atmos H 264-playWEB.mkv
Format                                   : Matroska
Format version                           : Version 4
File size                                : 1.06 GiB
Duration                                 : 34 min 42 s
Overall bit rate mode                    : Variable
Overall bit rate                         : 4 356 kb/s
Frame rate                               : 24.000 FPS
Writing application                      : mkvmerge v83.0 ('Circle Of Friends') 64-bit
Writing library                          : libebml v1.4.5 + libmatroska v1.7.1

Video
ID                                       : 1
Format                                   : AVC
Format/Info                              : Advanced Video Codec
Format profile                           : High@L3.1
Format settings                          : CABAC / 4 Ref Frames
Format settings, CABAC                   : Yes
Format settings, Reference frames        : 4 frames
Codec ID                                 : V_MPEG4/ISO/AVC
Duration                                 : 34 min 42 s
Bit rate mode                            : Variable
Bit rate                                 : 3 583 kb/s
Maximum bit rate                         : 6 375 kb/s
Width                                    : 1 280 pixels
Height                                   : 720 pixels
Display aspect ratio                     : 16:9
Frame rate mode                          : Constant
Frame rate                               : 24.000 FPS
Color space                              : YUV
Chroma subsampling                       : 4:2:0
Bit depth                                : 8 bits
Scan type                                : Progressive
Bits/(Pixel*Frame)                       : 0.162
Time code of first frame                 : 00:00:00:0000000000
Stream size                              : 889 MiB (82%)
Default                                  : Yes
Forced                                   : No
Color range                              : Limited
Color primaries                          : BT.709
Transfer characteristics                 : BT.709
Matrix coefficients                      : BT.709

Audio
ID                                       : 2
Format                                   : E-AC-3 JOC
Format/Info                              : Enhanced AC-3 with Joint Object Coding
Commercial name                          : Dolby Digital Plus with Dolby Atmos
Codec ID                                 : A_EAC3
Duration                                 : 34 min 42 s
Bit rate mode                            : Constant
Bit rate                                 : 768 kb/s
Channel(s)                               : 6 channels
Channel layout                           : L R C LFE Ls Rs
Sampling rate                            : 48.0 kHz
Frame rate                               : 31.250 FPS (1536 SPF)
Compression mode                         : Lossy
Stream size                              : 191 MiB (18%)
Language                                 : English
Service kind                             : Complete Main
Default                                  : Yes
Forced                                   : No
Complexity index                         : 16
Number of dynamic objects                : 15
Bed channel count                        : 1 channel
Bed channel configuration                : LFE

Text #1
ID                                       : 3
Format                                   : UTF-8
Codec ID                                 : S_TEXT/UTF8
Codec ID/Info                            : UTF-8 Plain Text
Duration                                 : 1 s 416 ms
Bit rate                                 : 96 b/s
Frame rate                               : 0.706 FPS
Count of elements                        : 1
Stream size                              : 17.0 Bytes (0%)
Title                                    : Forced
Language                                 : English
Default                                  : Yes
Forced                                   : Yes

Text #2
ID                                       : 4
Format                                   : UTF-8
Codec ID                                 : S_TEXT/UTF8
Codec ID/Info                            : UTF-8 Plain Text
Duration                                 : 34 min 35 s
Bit rate                                 : 62 b/s
Frame rate                               : 0.231 FPS
Count of elements                        : 479
Stream size                              : 15.8 KiB (0%)
Language                                 : Czech
Default                                  : No
Forced                                   : No

Text #3
ID                                       : 5
Format                                   : UTF-8
Codec ID                                 : S_TEXT/UTF8
Codec ID/Info                            : UTF-8 Plain Text
Duration                                 : 34 min 38 s
Bit rate                                 : 58 b/s
Frame rate                               : 0.148 FPS
Count of elements                        : 307
Stream size                              : 14.8 KiB (0%)
Language                                 : Danish
Default                                  : No
Forced                                   : No

Text #4
ID                                       : 6
Format                                   : UTF-8
Codec ID                                 : S_TEXT/UTF8
Codec ID/Info                            : UTF-8 Plain Text
Duration                                 : 34 min 35 s
Bit rate                                 : 66 b/s
Frame rate                               : 0.225 FPS
Count of elements                        : 466
Stream size                              : 17.0 KiB (0%)
Language                                 : German
Default                                  : No
Forced                                   : No

Text #5
ID                                       : 7
Format                                   : UTF-8
Codec ID                                 : S_TEXT/UTF8
Codec ID/Info                            : UTF-8 Plain Text
Duration                                 : 34 min 35 s
Bit rate                                 : 121 b/s
Frame rate                               : 0.236 FPS
Count of elements                        : 489
Stream size                              : 30.7 KiB (0%)
Language                                 : Greek
Default                                  : No
Forced                                   : No

Text #6
ID                                       : 8
Format                                   : UTF-8
Codec ID                                 : S_TEXT/UTF8
Codec ID/Info                            : UTF-8 Plain Text
Duration                                 : 32 min 34 s
Bit rate                                 : 64 b/s
Frame rate                               : 0.242 FPS
Count of elements                        : 472
Stream size                              : 15.5 KiB (0%)
Language                                 : English
Default                                  : No
Forced                                   : No

Text #7
ID                                       : 9
Format                                   : UTF-8
Codec ID                                 : S_TEXT/UTF8
Codec ID/Info                            : UTF-8 Plain Text
Duration                                 : 32 min 34 s
Bit rate                                 : 68 b/s
Frame rate                               : 0.252 FPS
Count of elements                        : 492
Stream size                              : 16.3 KiB (0%)
Title                                    : SDH
Language                                 : English
Default                                  : No
Forced                                   : No

Text #8
ID                                       : 10
Format                                   : UTF-8
Codec ID                                 : S_TEXT/UTF8
Codec ID/Info                            : UTF-8 Plain Text
Duration                                 : 34 min 35 s
Bit rate                                 : 66 b/s
Frame rate                               : 0.233 FPS
Count of elements                        : 483
Stream size                              : 16.9 KiB (0%)
Title                                    : Latin American
Language                                 : Spanish
Default                                  : No
Forced                                   : No

Text #9
ID                                       : 11
Format                                   : UTF-8
Codec ID                                 : S_TEXT/UTF8
Codec ID/Info                            : UTF-8 Plain Text
Duration                                 : 32 min 45 s
Bit rate                                 : 75 b/s
Frame rate                               : 0.253 FPS
Count of elements                        : 497
Stream size                              : 18.1 KiB (0%)
Language                                 : Spanish
Default                                  : No
Forced                                   : No

Text #10
ID                                       : 12
Format                                   : UTF-8
Codec ID                                 : S_TEXT/UTF8
Codec ID/Info                            : UTF-8 Plain Text
Duration                                 : 32 min 45 s
Bit rate                                 : 80 b/s
Frame rate                               : 0.277 FPS
Count of elements                        : 544
Stream size                              : 19.4 KiB (0%)
Title                                    : Latin American (SDH)
Language                                 : Spanish
Default                                  : No
Forced                                   : No

Text #11
ID                                       : 13
Format                                   : UTF-8
Codec ID                                 : S_TEXT/UTF8
Codec ID/Info                            : UTF-8 Plain Text
Duration                                 : 34 min 35 s
Bit rate                                 : 66 b/s
Frame rate                               : 0.235 FPS
Count of elements                        : 487
Stream size                              : 16.8 KiB (0%)
Title                                    : European
Language                                 : Spanish
Default                                  : No
Forced                                   : No

Text #12
ID                                       : 14
Format                                   : UTF-8
Codec ID                                 : S_TEXT/UTF8
Codec ID/Info                            : UTF-8 Plain Text
Duration                                 : 34 min 35 s
Bit rate                                 : 59 b/s
Frame rate                               : 0.232 FPS
Count of elements                        : 482
Stream size                              : 15.1 KiB (0%)
Language                                 : Finnish
Default                                  : No
Forced                                   : No

Text #13
ID                                       : 15
Format                                   : UTF-8
Codec ID                                 : S_TEXT/UTF8
Codec ID/Info                            : UTF-8 Plain Text
Duration                                 : 34 min 35 s
Bit rate                                 : 62 b/s
Frame rate                               : 0.224 FPS
Count of elements                        : 464
Stream size                              : 15.9 KiB (0%)
Title                                    : European
Language                                 : French
Default                                  : No
Forced                                   : No

Text #14
ID                                       : 16
Format                                   : UTF-8
Codec ID                                 : S_TEXT/UTF8
Codec ID/Info                            : UTF-8 Plain Text
Duration                                 : 34 min 35 s
Bit rate                                 : 68 b/s
Frame rate                               : 0.235 FPS
Count of elements                        : 487
Stream size                              : 17.3 KiB (0%)
Language                                 : Hungarian
Default                                  : No
Forced                                   : No

Text #15
ID                                       : 17
Format                                   : UTF-8
Codec ID                                 : S_TEXT/UTF8
Codec ID/Info                            : UTF-8 Plain Text
Duration                                 : 34 min 35 s
Bit rate                                 : 65 b/s
Frame rate                               : 0.232 FPS
Count of elements                        : 482
Stream size                              : 16.7 KiB (0%)
Language                                 : Italian
Default                                  : No
Forced                                   : No

Text #16
ID                                       : 18
Format                                   : UTF-8
Codec ID                                 : S_TEXT/UTF8
Codec ID/Info                            : UTF-8 Plain Text
Duration                                 : 34 min 35 s
Bit rate                                 : 59 b/s
Frame rate                               : 0.198 FPS
Count of elements                        : 410
Stream size                              : 15.1 KiB (0%)
Language                                 : Japanese
Default                                  : No
Forced                                   : No

Text #17
ID                                       : 19
Format                                   : UTF-8
Codec ID                                 : S_TEXT/UTF8
Codec ID/Info                            : UTF-8 Plain Text
Duration                                 : 34 min 35 s
Bit rate                                 : 64 b/s
Frame rate                               : 0.237 FPS
Count of elements                        : 491
Stream size                              : 16.4 KiB (0%)
Language                                 : Korean
Default                                  : No
Forced                                   : No

Text #18
ID                                       : 20
Format                                   : UTF-8
Codec ID                                 : S_TEXT/UTF8
Codec ID/Info                            : UTF-8 Plain Text
Duration                                 : 34 min 35 s
Bit rate                                 : 58 b/s
Frame rate                               : 0.231 FPS
Count of elements                        : 479
Stream size                              : 14.7 KiB (0%)
Language                                 : Norwegian Bokmal
Default                                  : No
Forced                                   : No

Text #19
ID                                       : 21
Format                                   : UTF-8
Codec ID                                 : S_TEXT/UTF8
Codec ID/Info                            : UTF-8 Plain Text
Duration                                 : 34 min 35 s
Bit rate                                 : 62 b/s
Frame rate                               : 0.189 FPS
Count of elements                        : 393
Stream size                              : 15.8 KiB (0%)
Language                                 : Dutch
Default                                  : No
Forced                                   : No

Text #20
ID                                       : 22
Format                                   : UTF-8
Codec ID                                 : S_TEXT/UTF8
Codec ID/Info                            : UTF-8 Plain Text
Duration                                 : 34 min 35 s
Bit rate                                 : 67 b/s
Frame rate                               : 0.229 FPS
Count of elements                        : 476
Stream size                              : 17.1 KiB (0%)
Language                                 : Polish
Default                                  : No
Forced                                   : No

Text #21
ID                                       : 23
Format                                   : UTF-8
Codec ID                                 : S_TEXT/UTF8
Codec ID/Info                            : UTF-8 Plain Text
Duration                                 : 34 min 35 s
Bit rate                                 : 70 b/s
Frame rate                               : 0.234 FPS
Count of elements                        : 485
Stream size                              : 17.9 KiB (0%)
Title                                    : Brazilian
Language                                 : Portuguese
Default                                  : No
Forced                                   : No

Text #22
ID                                       : 24
Format                                   : UTF-8
Codec ID                                 : S_TEXT/UTF8
Codec ID/Info                            : UTF-8 Plain Text
Duration                                 : 33 min 11 s
Bit rate                                 : 81 b/s
Frame rate                               : 0.303 FPS
Count of elements                        : 604
Stream size                              : 19.9 KiB (0%)
Title                                    : Brazilian (SDH)
Language                                 : Portuguese
Default                                  : No
Forced                                   : No

Text #23
ID                                       : 25
Format                                   : UTF-8
Codec ID                                 : S_TEXT/UTF8
Codec ID/Info                            : UTF-8 Plain Text
Duration                                 : 34 min 35 s
Bit rate                                 : 68 b/s
Frame rate                               : 0.233 FPS
Count of elements                        : 484
Stream size                              : 17.3 KiB (0%)
Title                                    : European
Language                                 : Portuguese
Default                                  : No
Forced                                   : No

Text #24
ID                                       : 26
Format                                   : UTF-8
Codec ID                                 : S_TEXT/UTF8
Codec ID/Info                            : UTF-8 Plain Text
Duration                                 : 34 min 35 s
Bit rate                                 : 66 b/s
Frame rate                               : 0.231 FPS
Count of elements                        : 480
Stream size                              : 16.7 KiB (0%)
Language                                 : Romanian
Default                                  : No
Forced                                   : No

Text #25
ID                                       : 27
Format                                   : UTF-8
Codec ID                                 : S_TEXT/UTF8
Codec ID/Info                            : UTF-8 Plain Text
Duration                                 : 34 min 35 s
Bit rate                                 : 61 b/s
Frame rate                               : 0.228 FPS
Count of elements                        : 473
Stream size                              : 15.5 KiB (0%)
Language                                 : Slovak
Default                                  : No
Forced                                   : No

Text #26
ID                                       : 28
Format                                   : UTF-8
Codec ID                                 : S_TEXT/UTF8
Codec ID/Info                            : UTF-8 Plain Text
Duration                                 : 34 min 35 s
Bit rate                                 : 52 b/s
Frame rate                               : 0.146 FPS
Count of elements                        : 304
Stream size                              : 13.3 KiB (0%)
Language                                 : Swedish
Default                                  : No
Forced                                   : No

Text #27
ID                                       : 29
Format                                   : UTF-8
Codec ID                                 : S_TEXT/UTF8
Codec ID/Info                            : UTF-8 Plain Text
Duration                                 : 34 min 35 s
Bit rate                                 : 53 b/s
Frame rate                               : 0.237 FPS
Count of elements                        : 491
Stream size                              : 13.4 KiB (0%)
Title                                    : Traditional
Language                                 : Chinese
Default                                  : No
Forced                                   : No

Text #28
ID                                       : 30
Format                                   : UTF-8
Codec ID                                 : S_TEXT/UTF8
Codec ID/Info                            : UTF-8 Plain Text
Duration                                 : 34 min 35 s
Bit rate                                 : 55 b/s
Frame rate                               : 0.237 FPS
Count of elements                        : 491
Stream size                              : 14.0 KiB (0%)
Title                                    : Traditional, Hong Kong
Language                                 : Chinese
Default                                  : No
Forced                                   : No

Menu
00:00:04.000                             : en:Recap
00:01:00.458                             : en:Scene 1
00:01:00.542                             : en:Intro
00:02:10.083                             : en:Scene 2
00:33:24.958                             : en:Credits



Download
File Container: MKV
Video/Audio Codec: H264 (HIGH) EAC3
Video Resolution: 1280x720

1 Response to "[RR/NF/CU] X-Men 97 S01E05 Remember It 720p DSNP WEB-DL DD 5 1 Atmos H 264-playWEB (1.1GB)"
04/10/24
13:52:42
ReadyPlayerOne

Thank You

Please Login to post a comment.
If you don't have any account, please Register.
  • Subscribe my Feeds
  • Facebook
Encoding Queue:  x264  x265

Latest Episodes

Popular Movies and TV Shows

  • Walker
  • Boys on Film 21: Beautiful Secret
  • The Fall Guy
  • The Bold and the Beautiful
  • MacGyver
  • No Country for Old Men
  • Furiosa: A Mad Max Saga
  • The Feeling That the Time for Doing Something Has Passed
  • Autoerotic
  • Under the Bridge
  • WWE NXT
  • Race Across the World
  • Dark Matter
  • MasterChef Australia
  • The Big Door Prize
  • Nevada Smith
  • Civil War
  • 12 Strong
  • Loot
  • WWE Raw
  • CSI: Vegas
  • Your Mother's Son
  • Mahal ko ang mahal mo
  • The First Omen
  • The Daily Show

Recent Comments

  • dma: @admin It appears that ClickNupload is no longer usable for free users. Don't know about paying use...
  • Bionicone: Yea this is not the Bluray version. This is another Cam. This thing should be taken down. Do not dow...
  • spiderspinner: Bud:The same thing started happening to me last night and I've used four different browsers yet they...
  • timt:

    Junk, CAM

  • upx:

    WARNING:This is NOT a BluRay rip. It's a CAMrip.

  • Bud: Is clicknupload borked for anyone else now, or is it just me? In recent months it's only worked in...
  • mentalityx:

    Rad bloke!

  • waanaabe: I hope someone follows through with the rest! also, did not check every post but hoping future ones ...
  • Demonz:

    Holy popups ClickNupload

  • rambaldi70:

    this release sort cut! 1h33m12 !
    imdb - 1h 54m

  • rambaldi70: This release the first bad source 1h33m12 - stop the play this release sort cut! 1h33m12 ! imdb - 1h...
  • rambaldi70:

    this release sort cut! 1h33m12 !
    imdb - 1h 54m

  • dilliboy: Will we ever see these RMTeam releases ever again? I hope they're not lost to the digital graveyard ...
  • kang:

    NitroFlare's link is missing...

  • kang:

    NitroFlare's link is missing...

  • tchamast:

    @Wrapt

    I've seen that too, don't know why.

  • Rafi85: Hi thx for the 14th season. Is it possible to reupload some episodes plz they were removed. These ar...
  • KubrickFan:

    Any possibility of a fresh link for this?

  • GubeShitemon: This is a different movie to the artwork version. Not the Dylan McDermott film but the Ben Affleck f...
  • drorsabi1:

    @admin
    Please add "My Adventures With Superman Season 2 "

Archives