Sign Up   |   Sign In  
Young SheldonTrackerThe Name of the RoseTMZ Presents: The Downfall of DiddyThe SummitMad Max: Fury RoadDevil in the FleshThe Green VeilBob's BurgersBodkinQueen of the GypsiesGolden KamuyThe SimpsonsThe EqualizerCSI: VegasBaby DriverChallengersTales of Ordinary MadnessThe SympathizerKrapopolisThe Great NorthTriple FrontierA Walk Among the TombstonesDawn of the Planet of the ApesBeacon 23

Announcements

04/17

2024

1

Comments

X-Men 97 S01E06 Lifedeath Part 2 1080p DSNP WEB-DL DDP5 1 Atmos H 264-FLUX
[RR/NF/CU]
Size: 1.7GB mkv H264 (HIGH) / EAC3  HD  1920x1080

X-Men '97
File Information
[img]http://lookpic.com/cdn/i2/t/0417202409241511-1.jpg[/img]
[img]http://lookpic.com/cdn/i2/t/0417202409241511-2.jpg[/img]
[img]http://lookpic.com/cdn/i2/t/0417202409241511-3.jpg[/img]

General
Unique ID                                : 225628195118243641234593992032427788524 (0xA9BE68E3E8E6D2DAEFE461EE2F4D48EC)
Complete name                            : X-Men 97 S01E06 Lifedeath Part 2 1080p DSNP WEB-DL DDP5 1 Atmos H 264-FLUX.mkv
Format                                   : Matroska
Format version                           : Version 4
File size                                : 1.70 GiB
Duration                                 : 31 min 14 s
Overall bit rate mode                    : Variable
Overall bit rate                         : 7 785 kb/s
Frame rate                               : 24.000 FPS
Writing application                      : mkvmerge v83.0 ('Circle Of Friends') 64-bit
Writing library                          : libebml v1.4.5 + libmatroska v1.7.1

Video
ID                                       : 1
Format                                   : AVC
Format/Info                              : Advanced Video Codec
Format profile                           : High@L4
Format settings                          : CABAC / 4 Ref Frames
Format settings, CABAC                   : Yes
Format settings, Reference frames        : 4 frames
Codec ID                                 : V_MPEG4/ISO/AVC
Duration                                 : 31 min 14 s
Bit rate mode                            : Variable
Bit rate                                 : 7 012 kb/s
Maximum bit rate                         : 12.7 Mb/s
Width                                    : 1 920 pixels
Height                                   : 1 080 pixels
Display aspect ratio                     : 16:9
Frame rate mode                          : Constant
Frame rate                               : 24.000 FPS
Color space                              : YUV
Chroma subsampling                       : 4:2:0
Bit depth                                : 8 bits
Scan type                                : Progressive
Bits/(Pixel*Frame)                       : 0.141
Time code of first frame                 : 00:00:00:0000000000
Stream size                              : 1.53 GiB (90%)
Language                                 : English
Default                                  : Yes
Forced                                   : No
Color range                              : Limited
Color primaries                          : BT.709
Transfer characteristics                 : BT.709
Matrix coefficients                      : BT.709

Audio
ID                                       : 2
Format                                   : E-AC-3 JOC
Format/Info                              : Enhanced AC-3 with Joint Object Coding
Commercial name                          : Dolby Digital Plus with Dolby Atmos
Codec ID                                 : A_EAC3
Duration                                 : 31 min 14 s
Bit rate mode                            : Constant
Bit rate                                 : 768 kb/s
Channel(s)                               : 6 channels
Channel layout                           : L R C LFE Ls Rs
Sampling rate                            : 48.0 kHz
Frame rate                               : 31.250 FPS (1536 SPF)
Compression mode                         : Lossy
Stream size                              : 172 MiB (10%)
Language                                 : English
Service kind                             : Complete Main
Default                                  : Yes
Forced                                   : No
Complexity index                         : 16
Number of dynamic objects                : 15
Bed channel count                        : 1 channel
Bed channel configuration                : LFE

Text #1
ID                                       : 3
Format                                   : UTF-8
Codec ID                                 : S_TEXT/UTF8
Codec ID/Info                            : UTF-8 Plain Text
Duration                                 : 29 min 7 s
Bit rate                                 : 63 b/s
Frame rate                               : 0.258 FPS
Count of elements                        : 451
Stream size                              : 13.6 KiB (0%)
Language                                 : English
Default                                  : No
Forced                                   : No

Text #2
ID                                       : 4
Format                                   : UTF-8
Codec ID                                 : S_TEXT/UTF8
Codec ID/Info                            : UTF-8 Plain Text
Duration                                 : 29 min 16 s
Bit rate                                 : 70 b/s
Frame rate                               : 0.289 FPS
Count of elements                        : 507
Stream size                              : 15.1 KiB (0%)
Title                                    : SDH
Language                                 : English
Default                                  : No
Forced                                   : No

Text #3
ID                                       : 5
Format                                   : UTF-8
Codec ID                                 : S_TEXT/UTF8
Codec ID/Info                            : UTF-8 Plain Text
Duration                                 : 31 min 7 s
Bit rate                                 : 63 b/s
Frame rate                               : 0.246 FPS
Count of elements                        : 460
Stream size                              : 14.6 KiB (0%)
Language                                 : Czech
Default                                  : No
Forced                                   : No

Text #4
ID                                       : 6
Format                                   : UTF-8
Codec ID                                 : S_TEXT/UTF8
Codec ID/Info                            : UTF-8 Plain Text
Duration                                 : 31 min 10 s
Bit rate                                 : 58 b/s
Frame rate                               : 0.154 FPS
Count of elements                        : 288
Stream size                              : 13.4 KiB (0%)
Language                                 : Danish
Default                                  : No
Forced                                   : No

Text #5
ID                                       : 7
Format                                   : UTF-8
Codec ID                                 : S_TEXT/UTF8
Codec ID/Info                            : UTF-8 Plain Text
Duration                                 : 31 min 7 s
Bit rate                                 : 70 b/s
Frame rate                               : 0.241 FPS
Count of elements                        : 450
Stream size                              : 16.0 KiB (0%)
Language                                 : German
Default                                  : No
Forced                                   : No

Text #6
ID                                       : 8
Format                                   : UTF-8
Codec ID                                 : S_TEXT/UTF8
Codec ID/Info                            : UTF-8 Plain Text
Duration                                 : 31 min 7 s
Bit rate                                 : 128 b/s
Frame rate                               : 0.251 FPS
Count of elements                        : 469
Stream size                              : 29.3 KiB (0%)
Language                                 : Greek
Default                                  : No
Forced                                   : No

Text #7
ID                                       : 9
Format                                   : UTF-8
Codec ID                                 : S_TEXT/UTF8
Codec ID/Info                            : UTF-8 Plain Text
Duration                                 : 31 min 7 s
Bit rate                                 : 66 b/s
Frame rate                               : 0.248 FPS
Count of elements                        : 463
Stream size                              : 15.3 KiB (0%)
Title                                    : Latin American
Language                                 : Spanish (Latin America)
Default                                  : No
Forced                                   : No

Text #8
ID                                       : 10
Format                                   : UTF-8
Codec ID                                 : S_TEXT/UTF8
Codec ID/Info                            : UTF-8 Plain Text
Duration                                 : 31 min 7 s
Bit rate                                 : 66 b/s
Frame rate                               : 0.250 FPS
Count of elements                        : 467
Stream size                              : 15.2 KiB (0%)
Language                                 : Spanish (ES)
Default                                  : No
Forced                                   : No

Text #9
ID                                       : 11
Format                                   : UTF-8
Codec ID                                 : S_TEXT/UTF8
Codec ID/Info                            : UTF-8 Plain Text
Duration                                 : 31 min 7 s
Bit rate                                 : 61 b/s
Frame rate                               : 0.251 FPS
Count of elements                        : 468
Stream size                              : 14.0 KiB (0%)
Language                                 : Finnish
Default                                  : No
Forced                                   : No

Text #10
ID                                       : 12
Format                                   : UTF-8
Codec ID                                 : S_TEXT/UTF8
Codec ID/Info                            : UTF-8 Plain Text
Duration                                 : 31 min 7 s
Bit rate                                 : 66 b/s
Frame rate                               : 0.251 FPS
Count of elements                        : 469
Stream size                              : 15.1 KiB (0%)
Language                                 : French (FR)
Default                                  : No
Forced                                   : No

Text #11
ID                                       : 13
Format                                   : UTF-8
Codec ID                                 : S_TEXT/UTF8
Codec ID/Info                            : UTF-8 Plain Text
Duration                                 : 31 min 7 s
Bit rate                                 : 71 b/s
Frame rate                               : 0.251 FPS
Count of elements                        : 468
Stream size                              : 16.2 KiB (0%)
Language                                 : Hungarian
Default                                  : No
Forced                                   : No

Text #12
ID                                       : 14
Format                                   : UTF-8
Codec ID                                 : S_TEXT/UTF8
Codec ID/Info                            : UTF-8 Plain Text
Duration                                 : 31 min 7 s
Bit rate                                 : 68 b/s
Frame rate                               : 0.248 FPS
Count of elements                        : 463
Stream size                              : 15.5 KiB (0%)
Language                                 : Italian
Default                                  : No
Forced                                   : No

Text #13
ID                                       : 15
Format                                   : UTF-8
Codec ID                                 : S_TEXT/UTF8
Codec ID/Info                            : UTF-8 Plain Text
Duration                                 : 31 min 7 s
Bit rate                                 : 64 b/s
Frame rate                               : 0.207 FPS
Count of elements                        : 386
Stream size                              : 14.7 KiB (0%)
Language                                 : Japanese
Default                                  : No
Forced                                   : No

Text #14
ID                                       : 16
Format                                   : UTF-8
Codec ID                                 : S_TEXT/UTF8
Codec ID/Info                            : UTF-8 Plain Text
Duration                                 : 31 min 7 s
Bit rate                                 : 68 b/s
Frame rate                               : 0.252 FPS
Count of elements                        : 471
Stream size                              : 15.7 KiB (0%)
Language                                 : Korean
Default                                  : No
Forced                                   : No

Text #15
ID                                       : 17
Format                                   : UTF-8
Codec ID                                 : S_TEXT/UTF8
Codec ID/Info                            : UTF-8 Plain Text
Duration                                 : 31 min 7 s
Bit rate                                 : 65 b/s
Frame rate                               : 0.202 FPS
Count of elements                        : 378
Stream size                              : 14.9 KiB (0%)
Language                                 : Dutch
Default                                  : No
Forced                                   : No

Text #16
ID                                       : 18
Format                                   : UTF-8
Codec ID                                 : S_TEXT/UTF8
Codec ID/Info                            : UTF-8 Plain Text
Duration                                 : 31 min 7 s
Bit rate                                 : 60 b/s
Frame rate                               : 0.246 FPS
Count of elements                        : 460
Stream size                              : 13.7 KiB (0%)
Language                                 : Norwegian
Default                                  : No
Forced                                   : No

Text #17
ID                                       : 19
Format                                   : UTF-8
Codec ID                                 : S_TEXT/UTF8
Codec ID/Info                            : UTF-8 Plain Text
Duration                                 : 31 min 7 s
Bit rate                                 : 70 b/s
Frame rate                               : 0.246 FPS
Count of elements                        : 460
Stream size                              : 16.0 KiB (0%)
Language                                 : Polish
Default                                  : No
Forced                                   : No

Text #18
ID                                       : 20
Format                                   : UTF-8
Codec ID                                 : S_TEXT/UTF8
Codec ID/Info                            : UTF-8 Plain Text
Duration                                 : 31 min 7 s
Bit rate                                 : 71 b/s
Frame rate                               : 0.250 FPS
Count of elements                        : 467
Stream size                              : 16.2 KiB (0%)
Title                                    : Brazilian
Language                                 : Portuguese (BR)
Default                                  : No
Forced                                   : No

Text #19
ID                                       : 21
Format                                   : UTF-8
Codec ID                                 : S_TEXT/UTF8
Codec ID/Info                            : UTF-8 Plain Text
Duration                                 : 31 min 7 s
Bit rate                                 : 69 b/s
Frame rate                               : 0.250 FPS
Count of elements                        : 466
Stream size                              : 15.8 KiB (0%)
Language                                 : Portuguese (PT)
Default                                  : No
Forced                                   : No

Text #20
ID                                       : 22
Format                                   : UTF-8
Codec ID                                 : S_TEXT/UTF8
Codec ID/Info                            : UTF-8 Plain Text
Duration                                 : 31 min 7 s
Bit rate                                 : 66 b/s
Frame rate                               : 0.247 FPS
Count of elements                        : 462
Stream size                              : 15.2 KiB (0%)
Language                                 : Romanian
Default                                  : No
Forced                                   : No

Text #21
ID                                       : 23
Format                                   : UTF-8
Codec ID                                 : S_TEXT/UTF8
Codec ID/Info                            : UTF-8 Plain Text
Duration                                 : 31 min 7 s
Bit rate                                 : 62 b/s
Frame rate                               : 0.242 FPS
Count of elements                        : 452
Stream size                              : 14.4 KiB (0%)
Language                                 : Slovak
Default                                  : No
Forced                                   : No

Text #22
ID                                       : 24
Format                                   : UTF-8
Codec ID                                 : S_TEXT/UTF8
Codec ID/Info                            : UTF-8 Plain Text
Duration                                 : 31 min 7 s
Bit rate                                 : 55 b/s
Frame rate                               : 0.149 FPS
Count of elements                        : 279
Stream size                              : 12.6 KiB (0%)
Language                                 : Swedish
Default                                  : No
Forced                                   : No

Text #23
ID                                       : 25
Format                                   : UTF-8
Codec ID                                 : S_TEXT/UTF8
Codec ID/Info                            : UTF-8 Plain Text
Duration                                 : 31 min 7 s
Bit rate                                 : 57 b/s
Frame rate                               : 0.252 FPS
Count of elements                        : 470
Stream size                              : 13.0 KiB (0%)
Title                                    : Hong Kong
Language                                 : Chinese (HK)
Default                                  : No
Forced                                   : No

Text #24
ID                                       : 26
Format                                   : UTF-8
Codec ID                                 : S_TEXT/UTF8
Codec ID/Info                            : UTF-8 Plain Text
Duration                                 : 31 min 7 s
Bit rate                                 : 54 b/s
Frame rate                               : 0.252 FPS
Count of elements                        : 470
Stream size                              : 12.3 KiB (0%)
Title                                    : Traditional
Language                                 : Chinese (Traditional)
Default                                  : No
Forced                                   : No

Menu
00:00:04.000                             : en:Recap
00:00:54.250                             : en:Scene 1
00:00:54.292                             : en:Intro
00:02:04.792                             : en:Scene 2
00:05:49.417                             : en:Scene 3
00:18:26.042                             : en:Scene 4
00:25:28.292                             : en:Scene 5
00:29:17.000                             : en:Credits



Download
File Container: MKV
Video/Audio Codec: H264 (HIGH) EAC3
Video Resolution: 1920x1080

1 Response to "[RR/NF/CU] X-Men 97 S01E06 Lifedeath Part 2 1080p DSNP WEB-DL DDP5 1 Atmos H 264-FLUX (1.7GB)"
04/17/24
11:03:39
ReadyPlayerOne

Thank You

Please Login to post a comment.
If you don't have any account, please Register.
  • Subscribe my Feeds
  • Facebook
Encoding Queue:  x264  x265

Latest Episodes

Popular Movies and TV Shows

  • Young Sheldon
  • Tracker
  • The Name of the Rose
  • TMZ Presents: The Downfall of Diddy
  • The Summit
  • Mad Max: Fury Road
  • Devil in the Flesh
  • The Green Veil
  • Bob's Burgers
  • Bodkin
  • Queen of the Gypsies
  • Golden Kamuy
  • The Simpsons
  • The Equalizer
  • CSI: Vegas
  • Baby Driver
  • Challengers
  • Tales of Ordinary Madness
  • The Sympathizer
  • Krapopolis
  • The Great North
  • Triple Frontier
  • A Walk Among the Tombstones
  • Dawn of the Planet of the Apes
  • Beacon 23

Recent Comments

  • Bud: Is the search engine down for everyone, or just me? It just says 'You're forbidden!' whenever I lo...
  • 23d1:

    not episode 4 it is episode 3

  • 23d1:

    not episode 4 it is episode 3

  • 23d1:

    not episode 4 it is episode 3

  • 23d1:

    not episode 4 it is episode 3

  • aaroz88:

    Trimas!!

  • mptoo: I don't often ask this, infact this would be the first time, but I don't suppose there is any chance...
  • Cinque_Persson:

    btw:
    quote /quote
    is broken

  • gabrielsyme:

    Sorry but where is the clicknupload link?

  • mike1204:

    Is this episode doomed??? The RMX avi version is only 12 minutes long!!!

  • waanaabe:

    Could PUSHING DAISES kindly be upoaded to CU? THANKS!

Archives