Sign Up   |   Sign In  

Announcements

Want to support us?
Buy a RapidRAR account from our resellers:
Buy or renew a NitroFlare account via THIS LINK
We'll stop uploading files to Uploaded.net in December 2017.

06/20

2017

No

Comments

You Got Served 2 Beat the World 2011 1080p BluRay H264 AAC-RARBG
[RR/NF/UL/UR/CU]
Size: 1.7GB mp4 H264 (HIGH) (AVC1) / AAC (LC) (MP4A)  HD  1920x816

Beat the World
Click on the image to see full size
[RR/NF/UL/UR/CU] You Got Served 2 Beat the World 2011 1080p BluRay H264 AAC-RARBG (1.7GB) - Snapshot 1
File Information
[URL=http://imagecurl.com/viewer.php?file=92802951219638933086.png][IMG]http://imagecurl.com/images/92802951219638933086_thumb.png[/IMG][/URL]
[URL=http://imagecurl.com/viewer.php?file=18397734428935889436.png][IMG]http://imagecurl.com/images/18397734428935889436_thumb.png[/IMG][/URL]
[URL=http://imagecurl.com/viewer.php?file=12656374287299248176.png][IMG]http://imagecurl.com/images/12656374287299248176_thumb.png[/IMG][/URL]
[URL=http://imagecurl.com/viewer.php?file=93068888496134828771.png][IMG]http://imagecurl.com/images/93068888496134828771_thumb.png[/IMG][/URL]
[URL=http://imagecurl.com/viewer.php?file=61741723699375429421.png][IMG]http://imagecurl.com/images/61741723699375429421_thumb.png[/IMG][/URL]


[mediainfo]
Video
ID                                       : 1
Format                                   : AVC
Format/Info                              : Advanced Video Codec
Format profile                           : [email protected]
Format settings, CABAC                   : Yes
Format settings, ReFrames                : 4 frames
Codec ID                                 : avc1
Codec ID/Info                            : Advanced Video Coding
Duration                                 : 1 h 31 min
Bit rate                                 : 2 500 kb/s
Width                                    : 1 920 pixels
Height                                   : 816 pixels
Display aspect ratio                     : 2.35:1
Frame rate mode                          : Constant
Frame rate                               : 23.976 (23976/1000) FPS
Color space                              : YUV
Chroma subsampling                       : 4:2:0
Bit depth                                : 8 bits
Scan type                                : Progressive
Bits/(Pixel*Frame)                       : 0.067
Stream size                              : 1.60 GiB (92%)
Writing library                          : x264 core 148 r2597M e86f3a1
 Encoding settings                        : cabac=1 / ref=4 / deblock=1:-1:-1 / analyse=0x3:0x113 / me=umh / subme=9 / psy=1 / psy_rd=1.00:0.15 / mixed_ref=1 / me_range=24 / chroma_me=1 / trellis=2 / 8x8dct=1 / cqm=0 / deadz / fast pskip=1 / chroma_qp_offset=-3 / threads=32 / lookahead_threads=4 / sliced_threads=0 / nr=0 / decimate=1 / interlaced=0 / bluray_compat=0 / c / bframes=3 / b_pyramid=2 / b_adapt=2 / b_bias=0 / direct=3 / weightb=1 / open_gop=0 / weightp=2 / keyint=250 / keyint_min=25 / scenecut=40 / intra_refresh=0 / rc_lookahead=50 / rc=2pass / mbtree=1 / bitrate=2500 / ratetol=1.0 / qcomp=0.60 / qpmin=0 / qpmax=69 / qpstep=4 / cplxblur=20.0 / qblur=0.5 / vbv_maxrate=31250 / vbv_bufsize=31250 / nal_hrd=none / filler=0 / ip_ratio=1.40 / aq=3:1.00
Encoded date                             : UTC 2017-06-20 02:13:46
Tagged date                              : UTC 2017-06-20 02:13:46

Audio
ID                                       : 2
Format                                   : AAC
Format/Info                              : Advanced Audio Codec
Format profile                           : LC
Codec ID                                 : 40
Duration                                 : 1 h 31 min
Bit rate mode                            : Constant
Bit rate                                 : 224 kb/s
Channel(s)                               : 2 channels
Channel(s)_Original                      : 6 channels
Channel positions                        : Front: L C R, Side: L R, LFE
Sampling rate                            : 48.0 kHz
Frame rate                               : 46.875 FPS (1024 spf)
Compression mode                         : Lossy
Stream size                              : 147 MiB (8%)
Language                                 : English
Default                                  : Yes
Alternate group                          : 1
Encoded date                             : UTC 2017-06-20 02:13:46
Tagged date                              : UTC 2017-06-20 02:13:46



[/mediainfo]
Download
File Container: MP4
Video/Audio Codec: H264 (HIGH) (AVC1) AAC (LC) (MP4A)
Video Resolution: 1920x816
 
 
 
 
 

Show us some love

Leave a Comment

  • (never displayed)
  •  
        Members don't see captchas. Sign Up / Sign In
  • Notify me via email when someone responds.
  • Subscribe my Feeds
  • Facebook

Latest Episodes

Popular Movies and TV Shows

  • Mr. Robot
  • The Blacklist
  • The Shannara Chronicles
  • A Stork's Journey
  • Bears
  • Designated Survivor
  • SEAL Team
  • Riverdale
  • Modern Family
  • The Flash
  • South Park
  • Body Snatchers
  • American Made
  • The Dark Tower
  • Legends of Tomorrow
  • Lethal Weapon
  • American Horror Story
  • Upstream Color
  • War for the Planet of the Apes
  • Atomic Blonde
  • The Big Bang Theory
  • The Gifted
  • Supergirl
  • Fading Gigolo
  • Manifesto

Recent Comments

  • Vamps: This site is really going DOWN hill and FAST.The consistency of their releases (the 720p WEB-DL's ar...
  • thaone:

    Thank You

  • mamen:

    I think the file for the OL link is wrong.

  • ben/ben/ben: Also waiting for "Bad.Move.S01E05.720p.HDTV.x264-MTB" & "Bad.Move.S01E05.480p.HDT...
  • JAK:

    thanks

  • DrMashirito:

    thanks.

  • iker: Please, can you add "Bad.Move.S01E05.720p.HDTV.x264-MTB" & "Bad.Move.S01E05.480p....
  • op: openload changing your upload to mp4 format..pls change the upload settings. and rename your upload ...
  • DrMashirito:

    thx!!!

  • bearman:

    thanks