Sign Up   |   Sign In  
The ChiShoresySistasI Saw the TV GlowBekasThe EgyptianThe Bold and the BeautifulThe Big CigarYoung SheldonNotas sobre un veranoGoodbye Uncle TomThe PrestigeThe BoysWWE NXTWalkerBratsMower MinionsAssimilateEvilBridgertonCriminal MindsIn the Line of FireThe Artifice GirlLamp LifeThe Daily Show

Announcements

05/17

2024

1

Comments

Young Sheldon S07E01 A Weiner Schnitzel and Underwear in a Tree 1080p AMZN WEB-DL DDP5 1 H 264-FLUX
[RR/NF/CU]
Size: 1.1GB mkv H264 (HIGH) / EAC3  HD  1920x1080

Young Sheldon
File Information
[img]http://lookpic.com/cdn/i2/t/0517202409511753-1.jpg[/img]
[img]http://lookpic.com/cdn/i2/t/0517202409511753-2.jpg[/img]
[img]http://lookpic.com/cdn/i2/t/0517202409511753-3.jpg[/img]

General
Unique ID                                : 261631197541760332821249835259979765160 (0xC4D455F53AC7802178E9EB026EAA15A8)
Complete name                            : Young Sheldon S07E01 A Weiner Schnitzel and Underwear in a Tree 1080p AMZN WEB-DL DDP5 1 H 264-FLUX.mkv
Format                                   : Matroska
Format version                           : Version 4
File size                                : 1.13 GiB
Duration                                 : 20 min 11 s
Overall bit rate                         : 8 011 kb/s
Frame rate                               : 23.976 FPS
Writing application                      : mkvmerge v82.0 ('I'm The President') 64-bit
Writing library                          : libebml v1.4.5 + libmatroska v1.7.1

Video
ID                                       : 1
Format                                   : AVC
Format/Info                              : Advanced Video Codec
Format profile                           : High@L4
Format settings                          : CABAC / 4 Ref Frames
Format settings, CABAC                   : Yes
Format settings, Reference frames        : 4 frames
Codec ID                                 : V_MPEG4/ISO/AVC
Duration                                 : 20 min 11 s
Bit rate mode                            : Constant
Bit rate                                 : 7 369 kb/s
Nominal bit rate                         : 10 000 kb/s
Width                                    : 1 920 pixels
Height                                   : 1 080 pixels
Display aspect ratio                     : 16:9
Frame rate mode                          : Constant
Frame rate                               : 23.976 (24000/1001) FPS
Color space                              : YUV
Chroma subsampling                       : 4:2:0
Bit depth                                : 8 bits
Scan type                                : Progressive
Bits/(Pixel*Frame)                       : 0.148
Stream size                              : 1.04 GiB (92%)
Language                                 : English (US)
Default                                  : Yes
Forced                                   : No
Color range                              : Limited
Color primaries                          : BT.709
Transfer characteristics                 : BT.709
Matrix coefficients                      : BT.709

Audio
ID                                       : 2
Format                                   : E-AC-3
Format/Info                              : Enhanced AC-3
Commercial name                          : Dolby Digital Plus
Codec ID                                 : A_EAC3
Duration                                 : 20 min 11 s
Bit rate mode                            : Constant
Bit rate                                 : 640 kb/s
Channel(s)                               : 6 channels
Channel layout                           : L R C LFE Ls Rs
Sampling rate                            : 48.0 kHz
Frame rate                               : 31.250 FPS (1536 SPF)
Compression mode                         : Lossy
Stream size                              : 92.4 MiB (8%)
Language                                 : English
Service kind                             : Complete Main
Default                                  : Yes
Forced                                   : No

Text #1
ID                                       : 3
Format                                   : UTF-8
Codec ID                                 : S_TEXT/UTF8
Codec ID/Info                            : UTF-8 Plain Text
Duration                                 : 19 min 54 s
Bit rate                                 : 85 b/s
Frame rate                               : 0.421 FPS
Count of elements                        : 503
Stream size                              : 12.4 KiB (0%)
Language                                 : English (US)
Default                                  : No
Forced                                   : No

Text #2
ID                                       : 4
Format                                   : UTF-8
Codec ID                                 : S_TEXT/UTF8
Codec ID/Info                            : UTF-8 Plain Text
Duration                                 : 19 min 54 s
Bit rate                                 : 88 b/s
Frame rate                               : 0.437 FPS
Count of elements                        : 522
Stream size                              : 12.9 KiB (0%)
Title                                    : SDH
Language                                 : English (US)
Default                                  : No
Forced                                   : No



Download
File Container: MKV
Video/Audio Codec: H264 (HIGH) EAC3
Video Resolution: 1920x1080

1 Response to "[RR/NF/CU] Young Sheldon S07E01 A Weiner Schnitzel and Underwear in a Tree 1080p AMZN WEB-DL DDP5 1 H 264-FLUX (1.1GB)"
05/17/24
11:07:57
ReadyPlayerOne

Thank You

Please Login to post a comment.
If you don't have any account, please Register.
  • Subscribe my Feeds
  • Facebook
Encoding Queue:  x264  x265

Latest Episodes

Popular Movies and TV Shows

  • The Chi
  • Shoresy
  • Sistas
  • I Saw the TV Glow
  • Bekas
  • The Egyptian
  • The Bold and the Beautiful
  • The Big Cigar
  • Young Sheldon
  • Notas sobre un verano
  • Goodbye Uncle Tom
  • The Prestige
  • The Boys
  • WWE NXT
  • Walker
  • Brats
  • Mower Minions
  • Assimilate
  • Evil
  • Bridgerton
  • Criminal Minds
  • In the Line of Fire
  • The Artifice Girl
  • Lamp Life
  • The Daily Show

Recent Comments

Archives