Sign Up   |   Sign In  
SugarA Gentleman in MoscowElsbethRiver WildLate Night with the DevilAsphalt CityYoung SheldonManhuntLaw & Order: Special Victims UnitYou Were Never Really HereThe ReaderDune: Part TwoStar Trek: DiscoveryFamily GuyAmerican Horror StoryGhostbusters: Frozen EmpireThe Three Musketeers - Part II: MiladyGreen LanternChuckyThe Bold and the BeautifulWalkerGodzilla x Kong: The New EmpireLa margeThe InseparablesFBI

Announcements

02/16

2024

No

Comments

Young Sheldon S07E01 A Wiener Schnitzel and Underwear in a Tree 1080p AMZN WEB-DL DDP5 1 H 264-NTb
[RR/NF/CU]
Size: 1.1GB mkv H264 (HIGH) / EAC3  HD  1920x1080

Young Sheldon
File Information
[img]http://lookpic.com/cdn/i2/t/0216202406150693-1.jpg[/img]
[img]http://lookpic.com/cdn/i2/t/0216202406150693-2.jpg[/img]
[img]http://lookpic.com/cdn/i2/t/0216202406150693-3.jpg[/img]

General
Unique ID                                : 11793210476069121725875804823544999519 (0x8DF4A2B10D9A3A4BB69B84654CD2E5F)
Complete name                            : Young.Sheldon.S07E01.A.Wiener.Schnitzel.and.Underwear.in.a.Tree.1080p.AMZN.WEB-DL.DDP5.1.H.264-NTb.mkv
Format                                   : Matroska
Format version                           : Version 4
File size                                : 1.14 GiB
Duration                                 : 20 min 5 s
Overall bit rate                         : 8 117 kb/s
Frame rate                               : 23.976 FPS
Writing application                      : mkvmerge v81.0 ('Milliontown') 64-bit
Writing library                          : libebml v1.4.4 + libmatroska v1.7.1

Video
ID                                       : 1
Format                                   : AVC
Format/Info                              : Advanced Video Codec
Format profile                           : High@L4
Format settings                          : CABAC / 4 Ref Frames
Format settings, CABAC                   : Yes
Format settings, Reference frames        : 4 frames
Codec ID                                 : V_MPEG4/ISO/AVC
Duration                                 : 20 min 5 s
Bit rate mode                            : Constant
Bit rate                                 : 7 475 kb/s
Nominal bit rate                         : 10 000 kb/s
Width                                    : 1 920 pixels
Height                                   : 1 080 pixels
Display aspect ratio                     : 16:9
Frame rate mode                          : Constant
Frame rate                               : 23.976 (24000/1001) FPS
Color space                              : YUV
Chroma subsampling                       : 4:2:0
Bit depth                                : 8 bits
Scan type                                : Progressive
Bits/(Pixel*Frame)                       : 0.150
Stream size                              : 1.05 GiB (92%)
Default                                  : Yes
Forced                                   : No
Color range                              : Limited
Color primaries                          : BT.709
Transfer characteristics                 : BT.709
Matrix coefficients                      : BT.709

Audio
ID                                       : 2
Format                                   : E-AC-3
Format/Info                              : Enhanced AC-3
Commercial name                          : Dolby Digital Plus
Codec ID                                 : A_EAC3
Duration                                 : 20 min 5 s
Bit rate mode                            : Constant
Bit rate                                 : 640 kb/s
Channel(s)                               : 6 channels
Channel layout                           : L R C LFE Ls Rs
Sampling rate                            : 48.0 kHz
Frame rate                               : 31.250 FPS (1536 SPF)
Compression mode                         : Lossy
Stream size                              : 92.0 MiB (8%)
Language                                 : English (US)
Service kind                             : Complete Main
Default                                  : Yes
Forced                                   : No

Text #1
ID                                       : 3
Format                                   : UTF-8
Codec ID                                 : S_TEXT/UTF8
Codec ID/Info                            : UTF-8 Plain Text
Duration                                 : 19 min 36 s
Bit rate                                 : 84 b/s
Frame rate                               : 0.423 FPS
Count of elements                        : 498
Stream size                              : 12.2 KiB (0%)
Language                                 : English (US)
Default                                  : No
Forced                                   : No

Text #2
ID                                       : 4
Format                                   : UTF-8
Codec ID                                 : S_TEXT/UTF8
Codec ID/Info                            : UTF-8 Plain Text
Duration                                 : 19 min 36 s
Bit rate                                 : 88 b/s
Frame rate                               : 0.440 FPS
Count of elements                        : 518
Stream size                              : 12.7 KiB (0%)
Title                                    : SDH
Language                                 : English (US)
Default                                  : No
Forced                                   : No



Download
File Container: MKV
Video/Audio Codec: H264 (HIGH) EAC3
Video Resolution: 1920x1080
Please Login to post a comment.
If you don't have any account, please Register.
  • Subscribe my Feeds
  • Facebook
Encoding Queue:  x264  x265

Latest Episodes

Popular Movies and TV Shows

  • Sugar
  • A Gentleman in Moscow
  • Elsbeth
  • River Wild
  • Late Night with the Devil
  • Asphalt City
  • Young Sheldon
  • Manhunt
  • Law & Order: Special Victims Unit
  • You Were Never Really Here
  • The Reader
  • Dune: Part Two
  • Star Trek: Discovery
  • Family Guy
  • American Horror Story
  • Ghostbusters: Frozen Empire
  • The Three Musketeers - Part II: Milady
  • Green Lantern
  • Chucky
  • The Bold and the Beautiful
  • Walker
  • Godzilla x Kong: The New Empire
  • La marge
  • The Inseparables
  • FBI

Recent Comments

  • yopo:

    NitroFlare's link is missing !!!

  • yopo:

    NitroFlare's link is missing !!!

  • yopo:

    NitroFlare's link is missing !!!
    Clicknupload's link is missing !!!

  • yopo:

    NitroFlare's link is missing !!!

  • dragonnightfire: I have tried contacting Rapid Rar to find out what is going on with the server maintainance. I am no...
  • dragonnightfire:

    RR links dead on 5 eps

  • Draveren: hi. can we solve this "server under maintenance" stuff, already? if back in the day i'd ke...
  • Majnon: The links are dead. Please re-upload
  • timt:

    Anyone have the movie "Shoot" (1976) to post?

  • Nightshade: Hey, it appears at least the RMTeam separate episodes and ION's packs for the first two seasons of t...
  • Bigfishguy:

    There's no free option to download this video. Can someone please upload it to clicknupload?

  • timt:

    Junk

  • timt:

    CAM Audio

  • timt:

    Hard Coded SUMS! Russian, I Think.

  • ubirattan:

    Mandem um Fikper, por favor.

  • kellym2: No answer yet for my query - why all the episodes "server under maintenance" on some episo...
  • Majnon:

    Rapidrar links are dead :(

  • Rake:

    Loads of "Server is under maintenance" with RR theese days...

  • kellym2: Why am I getting "Server is in maintenance mode" on some episodes of a series and not on o...

Archives