Sign Up   |   Sign In  
Beacon 23ParishScrambledRiddle of FireThe War on ChildrenAll RiseImmoral WomenReal Time with Bill MaherBlood FreeStreet GirlsPacific Rim: UprisingBlueyBlue BloodsS.W.A.T.Grey's AnatomyWhiplashDesaparecer Por CompletoSleeping DogsFalloutFire CountryFBIDamagedLaRoy, TexasT2 TrainspottingSugar

Announcements

02/23

2024

1

Comments

Young Sheldon S07E02 A Roulette Wheel and a Piano Playing Dog 720p AMZN WEB-DL DDP5 1 H 264-NTb
[RR/NF/CU]
Size: 487MB mkv H264 (HIGH) / EAC3  HD  1280x720

Young Sheldon
File Information
[img]http://lookpic.com/cdn/i2/t/0223202405502627-1.jpg[/img]
[img]http://lookpic.com/cdn/i2/t/0223202405502627-2.jpg[/img]
[img]http://lookpic.com/cdn/i2/t/0223202405502627-3.jpg[/img]

General
Unique ID                                : 25483489606170645904742729613501646298 (0x132BF10ADCD4F2E884661973552DC5DA)
Complete name                            : Young.Sheldon.S07E02.A.Roulette.Wheel.and.a.Piano.Playing.Dog.720p.AMZN.WEB-DL.DDP5.1.H.264-NTb.mkv
Format                                   : Matroska
Format version                           : Version 4
File size                                : 488 MiB
Duration                                 : 18 min 24 s
Overall bit rate                         : 3 704 kb/s
Frame rate                               : 23.976 FPS
Writing application                      : mkvmerge v81.0 ('Milliontown') 64-bit
Writing library                          : libebml v1.4.4 + libmatroska v1.7.1

Video
ID                                       : 1
Format                                   : AVC
Format/Info                              : Advanced Video Codec
Format profile                           : High@L3.1
Format settings                          : CABAC / 4 Ref Frames
Format settings, CABAC                   : Yes
Format settings, Reference frames        : 4 frames
Codec ID                                 : V_MPEG4/ISO/AVC
Duration                                 : 18 min 24 s
Bit rate mode                            : Constant
Bit rate                                 : 3 062 kb/s
Nominal bit rate                         : 6 000 kb/s
Width                                    : 1 280 pixels
Height                                   : 720 pixels
Display aspect ratio                     : 16:9
Frame rate mode                          : Constant
Frame rate                               : 23.976 (24000/1001) FPS
Color space                              : YUV
Chroma subsampling                       : 4:2:0
Bit depth                                : 8 bits
Scan type                                : Progressive
Bits/(Pixel*Frame)                       : 0.139
Stream size                              : 403 MiB (83%)
Default                                  : Yes
Forced                                   : No
Color range                              : Limited
Color primaries                          : BT.709
Transfer characteristics                 : BT.709
Matrix coefficients                      : BT.709

Audio
ID                                       : 2
Format                                   : E-AC-3
Format/Info                              : Enhanced AC-3
Commercial name                          : Dolby Digital Plus
Codec ID                                 : A_EAC3
Duration                                 : 18 min 24 s
Bit rate mode                            : Constant
Bit rate                                 : 640 kb/s
Channel(s)                               : 6 channels
Channel layout                           : L R C LFE Ls Rs
Sampling rate                            : 48.0 kHz
Frame rate                               : 31.250 FPS (1536 SPF)
Compression mode                         : Lossy
Stream size                              : 84.3 MiB (17%)
Language                                 : English (US)
Service kind                             : Complete Main
Default                                  : Yes
Forced                                   : No

Text #1
ID                                       : 3
Format                                   : UTF-8
Codec ID                                 : S_TEXT/UTF8
Codec ID/Info                            : UTF-8 Plain Text
Duration                                 : 17 min 53 s
Bit rate                                 : 90 b/s
Frame rate                               : 0.423 FPS
Count of elements                        : 454
Stream size                              : 11.9 KiB (0%)
Language                                 : English (US)
Default                                  : No
Forced                                   : No

Text #2
ID                                       : 4
Format                                   : UTF-8
Codec ID                                 : S_TEXT/UTF8
Codec ID/Info                            : UTF-8 Plain Text
Duration                                 : 17 min 53 s
Bit rate                                 : 95 b/s
Frame rate                               : 0.448 FPS
Count of elements                        : 481
Stream size                              : 12.5 KiB (0%)
Title                                    : SDH
Language                                 : English (US)
Default                                  : No
Forced                                   : No



Download
File Container: MKV
Video/Audio Codec: H264 (HIGH) EAC3
Video Resolution: 1280x720

1 Response to "[RR/NF/CU] Young Sheldon S07E02 A Roulette Wheel and a Piano Playing Dog 720p AMZN WEB-DL DDP5 1 H 264-NTb (487MB)"
02/23/24
16:24:56
ReadyPlayerOne

Thank You

Please Login to post a comment.
If you don't have any account, please Register.
  • Subscribe my Feeds
  • Facebook
Encoding Queue:  x264  x265

Latest Episodes

Popular Movies and TV Shows

  • Beacon 23
  • Parish
  • Scrambled
  • Riddle of Fire
  • The War on Children
  • All Rise
  • Immoral Women
  • Real Time with Bill Maher
  • Blood Free
  • Street Girls
  • Pacific Rim: Uprising
  • Bluey
  • Blue Bloods
  • S.W.A.T.
  • Grey's Anatomy
  • Whiplash
  • Desaparecer Por Completo
  • Sleeping Dogs
  • Fallout
  • Fire Country
  • FBI
  • Damaged
  • LaRoy, Texas
  • T2 Trainspotting
  • Sugar

Recent Comments

  • DownloadHostInspector:

    so far these RMTeam uploads always have a working link. DownloadHostInspector approved!

  • DownloadHostInspector:

    ah yes, this upload has a host that works. clicknupload. DownloadHostInspector approved!

  • DownloadHostInspector: Why are all the download hosts trash? none of them let you download it
  • Qua4ratic:

    clicknupload link plz

  • ppoo:

    Please, can you add "Real Time with Bill Maher S22E11" ??

  • theahtisham:

    Kindly upload Ep. 3 and 4 as well.

  • Kudzu: Update on sound issue, File's codec info says stereo but is only a the left channel If I switch i...
  • Admin:

    kang
    Getting error while encoding, sorry

  • rambaldi70:

    sorry this release ok.
    but descripton is bad
    (Duration: 2h56m7s)

Archives